<?xml version="1.0" standalone="no"?>
<!DOCTYPE svg PUBLIC "-//W3C//DTD SVG 1.1//EN" "http://www.w3.org/Graphics/SVG/1.1/DTD/svg11.dtd" >
<svg xmlns="http://www.w3.org/2000/svg" xmlns:xlink="http://www.w3.org/1999/xlink" version="1.1">
<metadata>
Created by FontForge 20170731 at Mon Jan 28 18:45:47 2013
 By Aleksey,,,
Copyright (c) 2013, Eduardo Tunni (http://www.tipo.net.ar), with Reserved Font Name 'Sintony'
</metadata>
<defs>
<font id="Sintony" horiz-adv-x="580" >
  <font-face 
    font-family="Sintony"
    font-weight="400"
    font-stretch="normal"
    units-per-em="1000"
    panose-1="2 0 5 3 5 0 0 2 0 4"
    ascent="800"
    descent="-200"
    x-height="572"
    cap-height="730"
    bbox="-71 -301 1304 988"
    underline-thickness="3"
    underline-position="-3"
    unicode-range="U+0020-FB02"
  />
<missing-glyph horiz-adv-x="290" 
 />
    <glyph glyph-name="fi" unicode="fi" horiz-adv-x="640" 
d="M286 707q-78 0 -78 -91v-44h132v-59h-132v-513h-86v513h-66v59h66v44q0 159 158 159q59 0 106 -17l-22 -65q-34 14 -78 14zM448 572h86v-572h-86v572zM491 668q-51 0 -51 55.5t51 55.5q53 0 53 -55.5t-53 -55.5z" />
    <glyph glyph-name="fl" unicode="fl" horiz-adv-x="640" 
d="M286 707q-78 0 -78 -91v-44h132v-59h-132v-513h-86v513h-66v59h66v44q0 159 158 159q59 0 106 -17l-22 -65q-34 14 -78 14zM534 0h-86v758l86 12v-770z" />
    <glyph glyph-name=".notdef" horiz-adv-x="290" 
 />
    <glyph glyph-name=".null" horiz-adv-x="0" 
 />
    <glyph glyph-name="nonmarkingreturn" horiz-adv-x="333" 
 />
    <glyph glyph-name="space" unicode=" " horiz-adv-x="290" 
 />
    <glyph glyph-name="exclam" unicode="!" horiz-adv-x="312" 
d="M192 2q-13 -10 -36.5 -10t-36 10t-15 21.5t-2.5 27t1.5 24.5t6.5 19q8 21 44 21t46 -16.5t10 -40t-2.5 -35t-15.5 -21.5zM107 730h96v-164l-22 -375h-52l-22 375v164z" />
    <glyph glyph-name="quotedbl" unicode="&#x22;" horiz-adv-x="404" 
d="M240 730h92v-54l-20 -191h-52l-20 191v54zM72 730h92v-54l-20 -191h-52l-20 191v54z" />
    <glyph glyph-name="numbersign" unicode="#" horiz-adv-x="800" 
d="M432 -76l45 250h-223l-45 -250h-87l45 250h-111l12 70h112l44 241h-113l12 70h113l46 250h87l-46 -250h223l46 250h87l-46 -250h111l-12 -70h-111l-44 -241h112l-12 -70h-113l-45 -250h-87zM311 485l-44 -241h223l44 241h-223z" />
    <glyph glyph-name="dollar" unicode="$" horiz-adv-x="630" 
d="M131.5 395q-41.5 47 -41.5 138.5t44.5 143.5t151.5 58v108h61v-108q106 -7 152.5 -58t46.5 -147l-76 -5q0 72 -34.5 106t-116 34t-112.5 -34t-31 -103q0 -105 96 -118l97 -13q99 -14 143.5 -62.5t44.5 -134.5q0 -195 -210 -206v-107h-61v107q-112 6 -159.5 58.5
t-47.5 148.5l76 5q0 -72 37 -107t124.5 -35t121.5 33.5t34 102.5q0 98 -109 118l-97 15q-93 15 -134.5 62z" />
    <glyph glyph-name="percent" unicode="%" horiz-adv-x="980" 
d="M341 -66l214 801h61l-215 -801h-60zM828 8q-30 -16 -82 -16t-87 29.5t-46.5 73t-11.5 108t11.5 108t46.5 73t87 29.5t82.5 -16t46.5 -46q29 -54 29 -148q0 -155 -76 -195zM753 52q43 0 58.5 36.5t15.5 114t-15.5 114t-58.5 36.5t-59 -36.5t-16 -114t16 -114t59 -36.5z
M278 334q-31 -16 -83 -16t-87 29.5t-46.5 73t-11.5 108t11.5 108t46.5 73t87 29.5t82.5 -16t46.5 -46q29 -54 29 -148q0 -155 -75 -195zM202 378q43 0 58.5 36.5t15.5 114t-15.5 114t-58.5 36.5t-59 -36.5t-16 -114t16 -114t59 -36.5z" />
    <glyph glyph-name="ampersand" unicode="&#x26;" horiz-adv-x="634" 
d="M286 673q-71 0 -100 -34t-29 -96t33 -102t90 -40h15v-62q-85 0 -121.5 -36t-36.5 -108t36.5 -105t118.5 -33t117 34t35 100v148h-58v62h250v-62h-116v-102q0 -66 -7.5 -107.5t-30.5 -77.5q-45 -67 -192 -67q-239 0 -239 206q0 72 38 118t102 66q-54 22 -87 68.5
t-33 103.5q0 197 212 197q170 0 197 -142l-74 -22q-14 93 -120 93z" />
    <glyph glyph-name="quotesingle" unicode="'" horiz-adv-x="236" 
d="M72 730h92v-54l-20 -191h-52l-20 191v54z" />
    <glyph glyph-name="parenleft" unicode="(" horiz-adv-x="300" 
d="M294 4v-70q-105 0 -155 60q-53 62 -67 148q-14 84 -14 166.5t3 126.5t11 92.5t25 83.5t42 65q50 59 155 59v-70q-37 0 -64 -19t-42 -48t-24 -76q-13 -73 -13 -159t2.5 -128t11 -88.5t23.5 -75.5t42 -48t64 -19z" />
    <glyph glyph-name="parenright" unicode=")" horiz-adv-x="300" 
d="M6 665v70q105 0 155 -59q53 -63 67 -148t14 -167.5t-3 -126.5t-11 -92.5t-25 -83.5t-42 -64q-50 -60 -155 -60v70q37 0 64 19t42 48t24 75q13 74 13 160t-2.5 128t-11 88.5t-23.5 75.5t-42 48t-64 19z" />
    <glyph glyph-name="asterisk" unicode="*" horiz-adv-x="553" 
d="M231 779h92v-83l-32 -119h-28l-32 119v83zM26 566l28 83l79 -25l104 -66l-9 -26l-123 8zM167 303l-73 53l49 69l95 77l22 -17l-44 -114zM459 356l-73 -53l-49 68l-45 114l23 16l95 -76zM499 649l28 -83l-79 -26l-123 -9l-8 27l102 66z" />
    <glyph glyph-name="plus" unicode="+" 
d="M92 284v68h164v164h68v-164h164v-68h-164v-164h-68v164h-164z" />
    <glyph glyph-name="comma" unicode="," horiz-adv-x="226" 
d="M67 18q-7 23 -7 39.5t2.5 27t14.5 20.5t35.5 10t36 -10t15 -20.5t2.5 -37t-13.5 -59t-35.5 -56.5q-33 -37 -58 -56l-26 30q14 13 21 21q20 23 20 58q0 10 -7 33z" />
    <glyph glyph-name="hyphen" unicode="-" horiz-adv-x="488" 
d="M68 284v68h352v-68h-352z" />
    <glyph glyph-name="period" unicode="." horiz-adv-x="228" 
d="M150 2q-13 -10 -36.5 -10t-36 10t-15 21.5t-2.5 27t1.5 24.5t6.5 19q8 21 44 21t46 -16.5t10 -40t-2.5 -35t-15.5 -21.5z" />
    <glyph glyph-name="slash" unicode="/" horiz-adv-x="320" 
d="M-2 -106l237 881h87l-237 -881h-87z" />
    <glyph glyph-name="zero" unicode="0" horiz-adv-x="634" 
d="M316 -14q-61 0 -106.5 20t-74 53.5t-45.5 83.5t-23.5 103t-6.5 119t6.5 119t23.5 103t45 83.5t74 53.5t107 20t107 -20t74.5 -53.5t45.5 -83.5t23.5 -103t6.5 -119t-6.5 -119t-23.5 -103t-45.5 -83.5t-74.5 -53.5t-107 -20zM316 56q97 0 134.5 79.5t37.5 229.5
q0 230 -88 286q-34 22 -84 22t-84 -22t-52 -65q-34 -78 -34 -221q0 -231 86 -287q34 -22 84 -22z" />
    <glyph glyph-name="one" unicode="1" horiz-adv-x="634" 
d="M146 621v54q109 12 170 55h65v-659h152v-71h-391v71h151v550h-147z" />
    <glyph glyph-name="two" unicode="2" horiz-adv-x="634" 
d="M159 695q56 49 163.5 49t165 -52.5t57.5 -143.5q0 -63 -33.5 -119t-93.5 -121l-221 -237h356v-71h-473v67l282 305q50 53 73.5 92t23.5 91t-35.5 85t-106.5 33q-138 0 -146 -128l-76 12q8 89 64 138z" />
    <glyph glyph-name="three" unicode="3" horiz-adv-x="634" 
d="M147 174q15 -117 163 -117q76 0 118 33t42 97t-36.5 102.5t-113.5 38.5h-91v66h92q67 0 103 38.5t36 102.5t-38 101t-111 37t-110 -34t-42 -95l-75 10q7 90 64 140t166.5 50t170.5 -56.5t61 -155.5q0 -57 -30.5 -101t-81.5 -67q56 -20 88.5 -66t32.5 -115q0 -93 -66 -145
t-182 -52q-217 0 -236 179z" />
    <glyph glyph-name="four" unicode="4" horiz-adv-x="634" 
d="M480 0h-86v163h-362v70l322 497h126v-496h89v-71h-89v-163zM394 234v414l-265 -414h265z" />
    <glyph glyph-name="five" unicode="5" horiz-adv-x="634" 
d="M327 56q80 0 119.5 43.5t39.5 116.5t-57 112t-197 39h-120l23 363h396v-71h-323l-15 -220h47q170 0 251.5 -56t81.5 -162.5t-63.5 -170.5t-177 -64t-171 53t-63.5 152l76 7q8 -142 153 -142z" />
    <glyph glyph-name="six" unicode="6" horiz-adv-x="634" 
d="M332 673q-93 0 -130 -81q-31 -67 -35 -198q88 26 169 26q245 0 245 -201q-1 -110 -62 -171.5t-180 -61.5q-137 0 -197.5 91.5t-60.5 261.5q0 300 129 376q50 29 120 29q222 0 234 -200l-75 -8q-7 137 -157 137zM456 316q-39 37 -123 37t-166 -25q4 -144 43 -208t125 -64
q160 0 160 163q0 60 -39 97z" />
    <glyph glyph-name="seven" unicode="7" horiz-adv-x="634" 
d="M81 659v71h473v-66l-286 -664h-94l286 659h-379z" />
    <glyph glyph-name="eight" unicode="8" horiz-adv-x="634" 
d="M70 186q0 128 121 178q-111 47 -111 170q0 92 61 151t176.5 59t176.5 -59.5t61 -150.5q0 -114 -112 -164q122 -46 122 -184q0 -89 -66.5 -144.5t-180.5 -55.5t-181 55.5t-67 144.5zM188.5 288.5q-32.5 -40.5 -32.5 -100t41.5 -95.5t119 -36t120.5 36.5t43 94.5t-27 93
t-90 45l-79 13q-63 -10 -95.5 -50.5zM203 633.5q-38 -39.5 -38 -98t26.5 -90.5t91.5 -42l61 -10q62 11 94 48t32 95t-37.5 97.5t-114.5 39.5t-115 -39.5z" />
    <glyph glyph-name="nine" unicode="9" horiz-adv-x="634" 
d="M142 192q6 -136 162 -136q79 0 118.5 62.5t44.5 206.5q-83 -24 -158.5 -24t-124.5 17.5t-76 48.5q-50 59 -50 152.5t67 159t193 65.5t180.5 -93.5t54.5 -277.5q0 -175 -51 -275q-56 -112 -204 -112q-109 0 -167 51t-64 146zM183.5 413q39.5 -43 122.5 -43t162 20
q-2 152 -37.5 217.5t-118 65.5t-125.5 -44t-43 -108.5t39.5 -107.5z" />
    <glyph glyph-name="colon" unicode=":" horiz-adv-x="228" 
d="M150 2q-13 -10 -36.5 -10t-36 10t-15 21.5t-2.5 27t1.5 24.5t6.5 19q8 21 44 21t46 -16.5t10 -40t-2.5 -35t-15.5 -21.5zM150 417q-13 -10 -36.5 -10t-36 10t-15 21.5t-2.5 27t1.5 24.5t6.5 20q8 20 44 20t46 -16.5t10 -40t-2.5 -35t-15.5 -21.5z" />
    <glyph glyph-name="semicolon" unicode=";" horiz-adv-x="226" 
d="M67 18q-7 23 -7 39.5t2.5 27t14.5 20.5t35.5 10t36 -10t15 -20.5t2.5 -37t-13.5 -59t-35.5 -56.5q-33 -37 -58 -56l-26 30q14 13 21 21q20 23 20 58q0 10 -7 33zM149 417q-13 -10 -36.5 -10t-36 10t-15 21.5t-2.5 27t1.5 24.5t5.5 20q9 20 45 20t46 -16.5t10 -40
t-2.5 -35t-15.5 -21.5z" />
    <glyph glyph-name="less" unicode="&#x3c;" 
d="M89 274v86l402 169v-75l-336 -137l336 -137v-75z" />
    <glyph glyph-name="equal" unicode="=" 
d="M92 386v68h396v-68h-396zM92 182v68h396v-68h-396z" />
    <glyph glyph-name="greater" unicode="&#x3e;" 
d="M491 360v-86l-402 -169v75l336 137l-336 137v75z" />
    <glyph glyph-name="question" unicode="?" horiz-adv-x="480" 
d="M256 2q-13 -10 -36.5 -10t-36 10t-15 21.5t-2.5 27t1.5 24.5t6.5 19q8 21 43.5 21t46 -17t10.5 -40t-2.5 -34.5t-15.5 -21.5zM99 703q51 41 146.5 41t152 -61.5t56.5 -147.5q0 -154 -196 -222l-11 -122h-55l-8 152q97 32 141.5 77.5t44.5 108t-34 105.5t-100 43
q-107 0 -126 -96l-74 10q12 71 63 112z" />
    <glyph glyph-name="at" unicode="@" horiz-adv-x="1024" 
d="M514 -95q-170 0 -262 54q-95 55 -131 147q-35 90 -35 222q0 199 103.5 311t319.5 112t322.5 -106.5t106.5 -279.5q0 -240 -228 -240h-80l-23 61q-75 -71 -160 -71q-153 0 -153 225t185 225q73 0 145 -36l25 36h32v-380h27q84 0 117.5 45t33.5 124.5t-18 135.5t-57 101
q-82 95 -268.5 95t-266 -93t-79.5 -265q0 -69 8 -120t30 -98t60 -76q82 -64 246 -64h167v-65h-167zM473 176q69 0 130 64v239q-54 25 -109 25q-122 0 -122 -164t101 -164z" />
    <glyph glyph-name="A" unicode="A" horiz-adv-x="628" 
d="M255 730h117l239 -730h-87l-71 220h-278l-71 -220h-87zM314 652l-117 -362h233z" />
    <glyph glyph-name="B" unicode="B" horiz-adv-x="613" 
d="M344 0h-238v730h200q223 0 223 -187q0 -126 -105 -165q143 -31 143 -183q0 -195 -223 -195zM194 70h149q70 0 103 36t33 97t-33 98t-103 37h-149v-268zM194 409h111q70 0 103 33.5t33 91.5t-33 92t-103 34h-111v-251z" />
    <glyph glyph-name="C" unicode="C" horiz-adv-x="638" 
d="M355 672q-93 0 -139 -52q-41 -45 -50 -148q-4 -43 -4 -106t4 -107.5t16.5 -84.5t33.5 -64q46 -52 139 -52q154 0 159 164l72 -4q-7 -111 -60.5 -171.5t-170.5 -60.5q-165 0 -225 102q-31 51 -43.5 117t-12.5 160.5t12.5 160.5t43.5 117q60 101 225 101q109 0 162 -49.5
t65 -141.5l-71 -13q-21 132 -156 132z" />
    <glyph glyph-name="D" unicode="D" horiz-adv-x="698" 
d="M106 730h222q172 0 233 -108q30 -52 41.5 -113t11.5 -135.5t-6.5 -125.5t-25.5 -99.5t-50 -79.5q-71 -69 -204 -69h-222v730zM324 660h-130v-590h130q98 0 146 56q56 68 56 239t-56 239q-48 56 -146 56z" />
    <glyph glyph-name="E" unicode="E" horiz-adv-x="560" 
d="M106 730h388v-70h-300v-254h279v-70h-279v-266h320v-70h-408v730z" />
    <glyph glyph-name="F" unicode="F" horiz-adv-x="518" 
d="M106 730h368v-70h-280v-254h257v-70h-257v-336h-88v730z" />
    <glyph glyph-name="G" unicode="G" horiz-adv-x="693" 
d="M406 308v59h191v-367h-48l-15 87q-62 -101 -189 -101q-129 0 -193 66q-56 57 -72 184q-6 55 -6 139.5t12.5 150.5t43.5 117q60 101 225 101q109 0 162 -49.5t65 -141.5l-71 -13q-21 132 -156 132q-93 0 -139 -52q-41 -47 -50 -148q-4 -44 -4 -107.5t4 -108.5t16 -84.5
t32 -63.5q45 -50 128.5 -50t127 40.5t49.5 109.5v100h-113z" />
    <glyph glyph-name="H" unicode="H" horiz-adv-x="726" 
d="M532 730h88v-730h-88v330h-338v-330h-88v730h88v-330h338v330z" />
    <glyph glyph-name="I" unicode="I" horiz-adv-x="300" 
d="M106 730h88v-730h-88v730z" />
    <glyph glyph-name="J" unicode="J" horiz-adv-x="467" 
d="M376 730v-547q0 -47 -5.5 -77.5t-23.5 -60.5q-35 -59 -158 -59q-103 0 -139 46q-24 33 -29 63q-5 38 -5 94h76q0 -74 21 -102.5t78.5 -28.5t77 26.5t19.5 98.5v547h88z" />
    <glyph glyph-name="K" unicode="K" horiz-adv-x="598" 
d="M194 335v-335h-88v730h88v-325h79l205 325h92l-231 -362l245 -368h-95l-222 335h-73z" />
    <glyph glyph-name="L" unicode="L" horiz-adv-x="482" 
d="M106 0v730h88v-660h272v-70h-360z" />
    <glyph glyph-name="M" unicode="M" horiz-adv-x="877" 
d="M642 730h120l19 -730h-86l-15 615l-209 -553h-80l-194 547l-15 -609h-86l20 730h119l197 -559z" />
    <glyph glyph-name="N" unicode="N" horiz-adv-x="744" 
d="M550 730h88v-730h-96l-348 582v-582h-88v730h96l348 -583v583z" />
    <glyph glyph-name="O" unicode="O" horiz-adv-x="721" 
d="M502 14.5q-58 -28.5 -142.5 -28.5t-142 28t-88 82.5t-43 118.5t-12.5 140.5t7 130t26.5 103.5t50.5 83q69 72 202 72q168 0 231 -112q31 -54 43.5 -118t12.5 -149.5t-12.5 -149.5t-43.5 -118t-89 -82.5zM366 58q52 0 92.5 23.5t61.5 67t30 96t9 120.5t-9 120.5t-30 96.5
q-44 90 -160 90q-93 0 -140 -59q-58 -73 -58 -248t58 -248q47 -59 146 -59z" />
    <glyph glyph-name="P" unicode="P" horiz-adv-x="589" 
d="M321 271h-127v-271h-88v730h215q226 0 226 -229.5t-226 -229.5zM194 341h122q143 0 143 159.5t-143 159.5h-122v-319z" />
    <glyph glyph-name="Q" unicode="Q" horiz-adv-x="711" 
d="M74 365q0 233 84 313q67 66 197 66q166 0 227 -102q30 -52 42.5 -117.5t12.5 -159.5q0 -158 -39 -248t-139 -118l159 -71l-36 -67l-255 126q-145 8 -199 100.5t-54 277.5zM203 134q41 -76 151.5 -76t152.5 76.5t42 230.5t-42 230.5t-152.5 76.5t-151.5 -76t-41 -231
t41 -231z" />
    <glyph glyph-name="R" unicode="R" horiz-adv-x="640" 
d="M106 730h221q65 0 111.5 -19t69.5 -52q43 -62 43 -144q0 -157 -126 -200q27 -20 48 -66l108 -249h-94l-101 237q-16 36 -40 49t-67 15h-85v-301h-88v730zM194 371h129q73 0 106.5 41.5t33.5 103t-33.5 103t-106.5 41.5h-129v-289z" />
    <glyph glyph-name="S" unicode="S" horiz-adv-x="598" 
d="M498.5 323q43.5 -43 43.5 -132.5t-62.5 -147t-181 -57.5t-173.5 49t-69 141l72 13q19 -132 163 -132q163 0 163 129q0 56 -30 83t-100 46l-66 19q-103 28 -145 71.5t-42 133t60 147.5t174.5 58t166.5 -49t66 -141l-72 -13q-19 132 -152 132q-155 0 -155 -129
q0 -56 27.5 -83.5t93.5 -45.5l69 -19q106 -30 149.5 -73z" />
    <glyph glyph-name="T" unicode="T" horiz-adv-x="494" 
d="M7 660v70h480v-70h-196v-660h-88v660h-196z" />
    <glyph glyph-name="U" unicode="U" horiz-adv-x="697" 
d="M518 730h88v-489q0 -67 -16 -115t-39.5 -74.5t-60.5 -42t-68.5 -19.5t-73.5 -4t-73.5 4t-68 19.5t-60 42t-39.5 74.5t-16 115v489h88v-486q0 -116 55 -154q27 -18 53 -24t61.5 -6t61.5 6t53 24q55 37 55 154v486z" />
    <glyph glyph-name="V" unicode="V" horiz-adv-x="612" 
d="M365 0h-117l-223 730h90l191 -647l192 647h89z" />
    <glyph glyph-name="W" unicode="W" horiz-adv-x="871" 
d="M315 0h-128l-159 730h90l135 -648l139 648h87l138 -648l136 648h90l-159 -730h-128l-121 556z" />
    <glyph glyph-name="X" unicode="X" horiz-adv-x="629" 
d="M40 730h100l181 -283l172 283h96l-221 -356l240 -374h-100l-198 308l-186 -308h-97l236 382z" />
    <glyph glyph-name="Y" unicode="Y" horiz-adv-x="550" 
d="M319 0h-88v254l-225 476h90l179 -390l179 390h90l-225 -476v-254z" />
    <glyph glyph-name="Z" unicode="Z" horiz-adv-x="549" 
d="M511 730v-56l-376 -604h386v-70h-493v56l376 604h-357l1 70h463z" />
    <glyph glyph-name="bracketleft" unicode="[" horiz-adv-x="295" 
d="M78 -66v801h211v-63h-122v-675h122v-63h-211z" />
    <glyph glyph-name="backslash" unicode="\" horiz-adv-x="320" 
d="M85 775l237 -881h-87l-237 881h87z" />
    <glyph glyph-name="bracketright" unicode="]" horiz-adv-x="295" 
d="M217 735v-801h-211v63h122v675h-122v63h211z" />
    <glyph glyph-name="asciicircum" unicode="^" 
d="M247 618h86l149 -302h-75l-117 245l-117 -245h-75z" />
    <glyph glyph-name="underscore" unicode="_" horiz-adv-x="576" 
d="M68 -68v68h440v-68h-440z" />
    <glyph glyph-name="grave" unicode="`" horiz-adv-x="310" 
d="M264 671l-39 -46l-183 138l54 64z" />
    <glyph glyph-name="a" unicode="a" horiz-adv-x="586" 
d="M430 548q60 -43 60 -162v-386h-57l-22 89q-96 -103 -211 -103q-76 0 -111.5 40t-35.5 108t42.5 110t159.5 61l149 24v57q0 74 -31.5 102t-86.5 28q-110 0 -131 -107l-70 21q16 74 67 115t138.5 41t139.5 -38zM224 52q90 0 180 97v120l-141 -24q-71 -13 -98 -40.5t-27 -67
t21 -62.5t65 -23z" />
    <glyph glyph-name="b" unicode="b" horiz-adv-x="627" 
d="M357 -14q-94 0 -181 61l-19 -47h-51v758l86 10v-229q86 47 165 47q216 0 216 -300t-216 -300zM341 516q-77 0 -149 -43v-370q69 -47 141 -47q154 0 154 230q0 63 -12.5 112t-46.5 83.5t-87 34.5z" />
    <glyph glyph-name="c" unicode="c" horiz-adv-x="550" 
d="M140 286q0 -49 6 -87t22 -72q33 -71 125 -71q75 0 107.5 29.5t35.5 87.5l70 -3q-7 -89 -56 -136.5t-160 -47.5q-157 0 -208 128q-28 70 -28 153t10 132.5t35 94.5q52 92 191 92q111 0 160 -45.5t55 -131.5l-69 -10q-3 58 -35.5 87.5t-107.5 29.5q-92 0 -125 -71
q-28 -59 -28 -159z" />
    <glyph glyph-name="d" unicode="d" horiz-adv-x="627" 
d="M238 -14q-184 0 -184 300t223 300q77 0 158 -39v211l86 10v-768h-57l-25 87q-91 -101 -201 -101zM266 56q90 0 169 96v327q-72 39 -141 39q-84 0 -119 -61t-35 -171q0 -230 126 -230z" />
    <glyph glyph-name="e" unicode="e" horiz-adv-x="578" 
d="M297 -14q-131 0 -187 74.5t-56 225.5q0 300 239 300q236 0 236 -288v-21h-390q1 -118 36 -169.5t122 -51.5q142 0 152 115l71 -4q-19 -181 -223 -181zM405 470.5q-33 45.5 -111 45.5t-112 -46.5t-41 -128.5h302q-5 84 -38 129.5z" />
    <glyph glyph-name="f" unicode="f" horiz-adv-x="338" 
d="M286 707q-78 0 -78 -91v-44h132v-59h-132v-513h-86v513h-66v59h66v44q0 159 158 159q59 0 106 -17l-22 -65q-34 14 -78 14z" />
    <glyph glyph-name="g" unicode="g" horiz-adv-x="572" 
d="M390.5 198q-43.5 -18 -103.5 -18t-106 18l-45 -44q-23 -22 -23 -50q0 -37 46 -37h224q73 0 114.5 -38.5t41.5 -95t-22 -90t-63 -49.5q-71 -27 -184 -27t-174.5 29.5t-61.5 99t60 112.5q-57 22 -57 86q0 48 42 90l48 48q-53 52 -53 151q0 80 41 137q22 30 65.5 48t101 18
t97.5 -14h151v-57h-71q38 -52 38 -132t-41 -137q-22 -30 -65.5 -48zM157 383q0 -141 128.5 -141t128.5 141t-128.5 141t-128.5 -141zM156 -148q41 -16 127.5 -16t127 17.5t40.5 73.5q0 39 -28.5 56t-66.5 17h-200q-41 -33 -41 -82.5t41 -65.5z" />
    <glyph glyph-name="h" unicode="h" horiz-adv-x="654" 
d="M192 519q95 67 190.5 67t135.5 -44.5t40 -135.5v-406h-86v404q0 60 -23 86t-77 26q-93 0 -180 -67v-449h-86v758l86 10v-249z" />
    <glyph glyph-name="i" unicode="i" horiz-adv-x="298" 
d="M106 572h86v-572h-86v572zM149 668q-51 0 -51 55.5t51 55.5q53 0 53 -55.5t-53 -55.5z" />
    <glyph glyph-name="j" unicode="j" horiz-adv-x="298" 
d="M28 -158q78 0 78 91v639h86v-639q0 -159 -158 -159q-59 0 -105 18l22 65q35 -15 77 -15zM149 668q-51 0 -51 55.5t51 55.5q53 0 53 -55.5t-53 -55.5z" />
    <glyph glyph-name="k" unicode="k" horiz-adv-x="543" 
d="M192 0h-86v758l86 10v-427h79l161 231h95l-191 -270l209 -302h-95l-191 277h-67v-277z" />
    <glyph glyph-name="l" unicode="l" horiz-adv-x="298" 
d="M192 0h-86v758l86 12v-770z" />
    <glyph glyph-name="m" unicode="m" horiz-adv-x="986" 
d="M365 586q116 0 156 -79q37 33 88.5 56t106.5 23q174 0 174 -179v-407h-86v402q0 56 -24 85t-78 29q-89 0 -164 -68q3 -20 3 -41v-407h-86v402q0 56 -24 85t-79 29q-87 0 -160 -63v-453h-86v572h53l22 -57q84 71 184 71z" />
    <glyph glyph-name="n" unicode="n" horiz-adv-x="654" 
d="M181 512q101 74 199 74t138 -44.5t40 -135.5v-406h-86v404q0 60 -23 86t-77 26q-93 0 -180 -67v-449h-86v572h51z" />
    <glyph glyph-name="o" unicode="o" horiz-adv-x="604" 
d="M302 56q50 0 83.5 18.5t49.5 53t22.5 72t6.5 86.5t-6.5 86.5t-22.5 72t-49.5 53t-83.5 18.5t-83.5 -18.5t-50 -53t-22.5 -71.5t-6 -87t6 -87t22.5 -71.5t50 -53t83.5 -18.5zM302 -14q-248 0 -248 300t248 300t248 -300t-248 -300z" />
    <glyph glyph-name="p" unicode="p" horiz-adv-x="627" 
d="M357 586q216 0 216 -300t-224 -300q-73 0 -157 31v-239l-86 -12v806h51l20 -50q87 64 180 64zM452.5 450.5q-34.5 65.5 -112.5 65.5t-148 -51v-383q62 -26 141 -26q154 0 154 230q0 99 -34.5 164.5z" />
    <glyph glyph-name="q" unicode="q" horiz-adv-x="627" 
d="M277 586q98 0 175 -56l17 42h52v-794l-86 -12v257q-83 -37 -158 -37q-223 0 -223 300t223 300zM294 56q74 0 141 33v384q-59 43 -141 43q-154 0 -154 -230t154 -230z" />
    <glyph glyph-name="r" unicode="r" horiz-adv-x="401" 
d="M192 0h-86v572h51l31 -102q70 111 205 116v-79q-135 -5 -201 -114v-393z" />
    <glyph glyph-name="s" unicode="s" horiz-adv-x="532" 
d="M441.5 260.5q38.5 -36.5 38.5 -109t-54 -117.5t-160 -45t-153.5 40.5t-60.5 117.5l70 11q15 -101 137 -101q135 0 135 91q0 40 -24.5 59t-87.5 35l-57 14q-87 22 -123.5 58t-36.5 109.5t52 118t153.5 44.5t147 -40.5t58.5 -117.5l-71 -11q-13 101 -128 101
q-126 0 -126 -91q0 -40 23 -59.5t81 -34.5l58 -14q90 -22 128.5 -58.5z" />
    <glyph glyph-name="t" unicode="t" horiz-adv-x="345" 
d="M21 513v59h98v104l86 34v-138h121v-59h-121v-379q0 -45 12.5 -63.5t36.5 -18.5t59 8l10 -58q-54 -16 -91.5 -16t-61.5 12t-34 36q-17 36 -17 97v382h-98z" />
    <glyph glyph-name="u" unicode="u" horiz-adv-x="660" 
d="M265 -14q-89 0 -129 44.5t-40 133.5v408h86v-402q0 -59 25.5 -86.5t79.5 -27.5q97 0 181 99v417h86v-572h-57l-27 85q-93 -99 -205 -99z" />
    <glyph glyph-name="v" unicode="v" horiz-adv-x="532" 
d="M313 0h-94l-203 572h87l163 -472l163 472h87z" />
    <glyph glyph-name="w" unicode="w" horiz-adv-x="745" 
d="M256 0h-89l-146 572h87l110 -462l117 412h74l118 -412l110 462h87l-146 -572h-88l-118 400z" />
    <glyph glyph-name="x" unicode="x" horiz-adv-x="505" 
d="M99 0h-91l196 294l-186 278h96l142 -213l140 213h91l-185 -281l195 -291h-96l-152 227z" />
    <glyph glyph-name="y" unicode="y" horiz-adv-x="543" 
d="M222 -245l-78 14l88 227l-216 576h89l169 -463l164 463h88z" />
    <glyph glyph-name="z" unicode="z" horiz-adv-x="520" 
d="M54 506v66h411v-58l-318 -448h331v-66h-436v58l320 448h-308z" />
    <glyph glyph-name="braceleft" unicode="{" horiz-adv-x="303" 
d="M174 522l8 -118q0 -29 -14.5 -47t-34.5 -18v-6q20 0 34.5 -17.5t14.5 -46.5l-8 -120q0 -69 27.5 -107t95.5 -38v-70q-213 0 -213 203l8 121q0 26 -23 37t-50 11v58q27 0 50 11t23 37l-8 121q0 203 213 203v-70q-68 0 -95.5 -37.5t-27.5 -106.5z" />
    <glyph glyph-name="bar" unicode="|" horiz-adv-x="325" 
d="M114 -106v881h97v-881h-97z" />
    <glyph glyph-name="braceright" unicode="}" horiz-adv-x="303" 
d="M129 150l-8 120q0 29 14.5 47t34.5 18v6q-20 0 -34.5 17.5t-14.5 47.5l8 120q0 67 -27.5 103.5t-95.5 36.5v70q213 0 213 -203l-8 -121q0 -26 23 -37t50 -11v-58q-27 0 -50 -11t-23 -37l8 -121q0 -203 -213 -203v70q68 0 95.5 38t27.5 108z" />
    <glyph glyph-name="asciitilde" unicode="~" 
d="M92 352q34 -24 77.5 -24t120 21.5t119 21.5t79.5 -19v-68q-38 21 -80 21t-118.5 -21.5t-118.5 -21.5t-79 22v68z" />
    <glyph glyph-name="nbspace" unicode="&#xa0;" horiz-adv-x="290" 
 />
    <glyph glyph-name="exclamdown" unicode="&#xa1;" horiz-adv-x="312" 
d="M120 576q13 10 41.5 10t38.5 -16.5t10 -39.5t-2.5 -34.5t-15 -22t-41.5 -10.5t-39 16.5t-10 40t2.5 35t15.5 21.5zM205 -152h-97v164l22 375h53l22 -375v-164z" />
    <glyph glyph-name="cent" unicode="&#xa2;" horiz-adv-x="631" 
d="M373 -81h-60v120q-57 3 -98.5 23t-65.5 49t-39 73q-23 70 -23 181q0 109 18 164.5t42 84.5t66 50t100 26v120h60v-119q98 -5 141.5 -60.5t50.5 -147.5l-69 -4q-7 142 -141 142q-49 0 -84 -14.5t-53.5 -36t-29 -58t-13 -68t-2.5 -78.5t3 -80t13 -68.5t27 -57.5
q41 -51 127 -51t122.5 32t38.5 95l69 -4q-7 -88 -51.5 -137t-148.5 -56v-120z" />
    <glyph glyph-name="sterling" unicode="&#xa3;" horiz-adv-x="630" 
d="M68 314v61h71v155q0 106 48 160t162.5 54t164 -52t49.5 -162l-76 -5q0 77 -32 112.5t-103.5 35.5t-98 -35t-26.5 -108v-155h252v-61h-252v-120q0 -48 -10.5 -74.5t-38.5 -48.5h402v-71h-495v65q54 46 54 117v132h-71z" />
    <glyph glyph-name="currency" unicode="&#xa4;" horiz-adv-x="630" 
d="M188 534q54 41 132.5 41t126.5 -35l85 84l42 -42l-85 -85q36 -53 36 -131.5t-37 -131.5l86 -86l-42 -42l-87 85q-52 -36 -130.5 -36t-128.5 39l-88 -88l-42 42l90 91q-31 51 -31 126t32 125l-91 92l42 42zM220.5 267.5q28.5 -39.5 96.5 -39.5t99.5 39.5t31.5 97.5
t-29 97.5t-97 39.5t-99 -39.5t-31 -97.5t28.5 -97.5z" />
    <glyph glyph-name="yen" unicode="&#xa5;" horiz-adv-x="630" 
d="M81 387v60h115l-147 283h92l174 -348l175 348h91l-147 -283h117v-60h-148l-44 -85h192v-61h-193v-241h-86v241h-191v61h190l-44 85h-146z" />
    <glyph glyph-name="brokenbar" unicode="&#xa6;" horiz-adv-x="325" 
d="M114 439v336h97v-336h-97zM114 -106v336h97v-336h-97z" />
    <glyph glyph-name="section" unicode="&#xa7;" horiz-adv-x="491" 
d="M455 204q0 -123 -130 -172q58 -74 58 -142.5t-54 -119t-139 -71.5l-18 66q50 13 87 41.5t37 65.5t-12 61.5t-42 60.5l-133 159q-73 86 -73 159q0 123 130 173q-58 76 -58 143.5t53.5 117.5t139.5 72l18 -67q-50 -13 -87 -41.5t-37 -65t11.5 -61t40.5 -58.5l135 -161
q73 -86 73 -160zM368 187q0 35 -11.5 60t-42.5 61l-102 122q-89 -33 -89 -100q0 -36 11 -60t41 -59l104 -124q89 32 89 100z" />
    <glyph glyph-name="dieresis" unicode="&#xa8;" horiz-adv-x="324" 
d="M90 676.5q-12 -9.5 -34.5 -9.5t-34 9.5t-13.5 19.5t-2 27t2 27.5t13.5 20t39 9.5t36.5 -15t9 -37t-2 -32t-14 -19.5zM302 676.5q-12 -9.5 -34.5 -9.5t-34 9.5t-13.5 19.5t-2 27t2 27.5t13.5 20t39 9.5t36.5 -15t9 -37t-2 -32t-14 -19.5z" />
    <glyph glyph-name="copyright" unicode="&#xa9;" horiz-adv-x="729" 
d="M362 723q-53 0 -75.5 -40.5t-22.5 -122.5t21 -121.5t78 -39.5q40 0 60.5 24t22.5 65l48 -2q-8 -134 -132 -134q-87 0 -121.5 52t-34.5 156.5t35.5 156.5t119.5 52q121 0 132 -117l-49 -3q-8 74 -82 74zM65 560q0 146 77 223t222.5 77t222.5 -77t77 -222.5t-77 -222.5
t-223 -77t-222.5 76.5t-76.5 222.5zM119 560.5q0 -250.5 245.5 -250.5t245.5 250.5t-245.5 250.5t-245.5 -250.5z" />
    <glyph glyph-name="ordfeminine" unicode="&#xaa;" horiz-adv-x="433" 
d="M214 760q68 0 107.5 -30.5t39.5 -109.5v-270h-51l-21 55q-63 -65 -139 -65q-54 0 -80 29t-26 78t31 79t115 43l93 15v36q0 79 -71 79t-83 -68l-61 19q24 110 146 110zM121 449q0 -51 53.5 -51t108.5 57v78l-82 -14q-47 -8 -63.5 -26t-16.5 -44zM36 228v51h336v-51h-336z
" />
    <glyph glyph-name="guillemotleft" unicode="&#xab;" horiz-adv-x="524" 
d="M251 470l-122 -155l122 -155l-52 -51l-171 188v36l171 188zM470 470l-122 -155l122 -155l-52 -51l-171 188v36l171 188z" />
    <glyph glyph-name="logicalnot" unicode="&#xac;" 
d="M92 284v68h396v-206h-64v138h-332z" />
    <glyph glyph-name="registered" unicode="&#xae;" horiz-adv-x="729" 
d="M65 560q0 146 77 223t222.5 77t222.5 -77t77 -222.5t-77 -222.5t-223 -77t-222.5 76.5t-76.5 222.5zM119 560.5q0 -250.5 245.5 -250.5t245.5 250.5t-245.5 250.5t-245.5 -250.5zM245 762h125q80 0 106 -42q20 -32 20 -77q0 -93 -67 -112q14 -13 24 -35l60 -136h-62
l-56 130q-13 33 -50 33h-42v-163h-58v402zM303 568h66q69 0 69 74t-69 74h-66v-148z" />
    <glyph glyph-name="macron" unicode="&#xaf;" horiz-adv-x="354" 
d="M48 688v73h258v-73h-258z" />
    <glyph glyph-name="degree" unicode="&#xb0;" horiz-adv-x="421" 
d="M210 401q32 0 51.5 9t28 29t10.5 37.5t2 48.5t-2 48.5t-10.5 37.5t-28 29t-51.5 9t-51.5 -9t-28 -29t-10.5 -37.5t-2 -48.5t2 -48.5t10.5 -37.5t28 -29t51.5 -9zM210 340q-44 0 -75.5 10.5t-49 26.5t-27.5 42q-16 42 -16 95t5.5 81.5t21.5 56.5q32 58 141 58
q110 0 142 -58q16 -28 21.5 -56.5t5.5 -66t-3 -61t-13 -49.5t-27.5 -42t-49.5 -26.5t-76 -10.5z" />
    <glyph glyph-name="plusminus" unicode="&#xb1;" 
d="M92 334v68h164v164h68v-164h164v-68h-164v-164h-68v164h-164zM92 0v68h396v-68h-396z" />
    <glyph glyph-name="twosuperior" unicode="&#xb2;" horiz-adv-x="391" 
d="M196 754q64 0 97.5 -31t33.5 -84t-65 -125l-105 -113h177v-61h-281v47l147 159q51 56 51 93q0 24 -15.5 39t-45.5 15q-59 0 -65 -56l-67 7q11 110 138 110z" />
    <glyph glyph-name="threesuperior" unicode="&#xb3;" horiz-adv-x="391" 
d="M119 451q5 -61 74.5 -61t69.5 59q0 30 -19.5 49t-58.5 19h-22v47h23q36 0 54.5 19.5t18.5 48.5q0 62 -64 62q-28 0 -46 -15.5t-21 -42.5l-67 9q7 109 136 109q67 0 102.5 -33t35.5 -92t-66 -87q71 -24 71 -97q0 -50 -39.5 -81.5t-104.5 -31.5q-133 0 -143 110z" />
    <glyph glyph-name="acute" unicode="&#xb4;" horiz-adv-x="310" 
d="M85 625l-39 46l168 156l54 -64z" />
    <glyph glyph-name="mu" unicode="&#xb5;" horiz-adv-x="637" 
d="M200 -227h-86v799h86v-442q87 -74 184 -74q60 0 84 26.5t24 87.5v402h86v-408q0 -91 -38.5 -134.5t-139 -43.5t-200.5 73v-286z" />
    <glyph glyph-name="paragraph" unicode="&#xb6;" horiz-adv-x="495" 
d="M369 0h-88v281h-57q-100 0 -149 55.5t-49 139t49 139t149 55.5h145v-670z" />
    <glyph glyph-name="periodcentered" unicode="&#xb7;" horiz-adv-x="228" 
d="M150 267q-13 -10 -36.5 -10t-36 10t-15 21.5t-2.5 27t1.5 24.5t6.5 20q8 20 44 20t46 -16.5t10 -40t-2.5 -35t-15.5 -21.5z" />
    <glyph glyph-name="cedilla" unicode="&#xb8;" horiz-adv-x="295" 
d="M44 -142h66q0 -15 2 -23q5 -20 34 -20t36 10.5t7 32.5t-9.5 32.5t-34.5 14.5l-54 10l7 35h42q56 0 83.5 -19t27.5 -70.5t-22.5 -76.5t-81 -25t-81 25.5t-22.5 73.5z" />
    <glyph glyph-name="onesuperior" unicode="&#xb9;" horiz-adv-x="391" 
d="M86 669v46q66 6 99 30h62v-405h-79v329h-82z" />
    <glyph glyph-name="ordmasculine" unicode="&#xba;" horiz-adv-x="421" 
d="M42 228v51h336v-51h-336zM131.5 440.5q20.5 -38.5 79 -38.5t79 38.5t20.5 109.5t-20.5 110t-79 39t-79 -39t-20.5 -110t20.5 -109.5zM389 550q0 -210 -178.5 -210t-178.5 210t178.5 210t178.5 -210z" />
    <glyph glyph-name="guillemotright" unicode="&#xbb;" horiz-adv-x="524" 
d="M249 160l122 155l-122 155l52 51l171 -188v-36l-171 -188zM30 160l122 155l-122 155l52 51l171 -188v-36l-171 -188z" />
    <glyph glyph-name="onequarter" unicode="&#xbc;" horiz-adv-x="980" 
d="M854 0h-72v79h-198v56l155 270h115v-266h43v-60h-43v-79zM782 139v215l-122 -215h122zM93 655v46q66 6 99 30h62v-405h-79v329h-82zM341 -36l214 801h61l-215 -801h-60z" />
    <glyph glyph-name="onehalf" unicode="&#xbd;" horiz-adv-x="980" 
d="M333 -36l214 801h61l-215 -801h-60zM754 414q64 0 97.5 -31t33.5 -84t-65 -125l-105 -113h177v-61h-281v47l147 159q51 56 51 93q0 24 -15.5 39t-45.5 15q-59 0 -65 -56l-67 7q11 110 138 110zM93 655v46q66 6 99 30h62v-405h-79v329h-82z" />
    <glyph glyph-name="threequarters" unicode="&#xbe;" horiz-adv-x="980" 
d="M854 0h-72v79h-198v56l155 270h115v-266h43v-60h-43v-79zM782 139v215l-122 -215h122zM126 437q5 -61 74.5 -61t69.5 59q0 30 -19.5 49t-58.5 19h-22v47h23q36 0 54.5 19.5t18.5 48.5q0 62 -64 62q-28 0 -46 -15.5t-21 -42.5l-67 9q7 109 136 109q67 0 102.5 -33
t35.5 -92t-66 -87q71 -24 71 -97q0 -50 -39.5 -81.5t-104.5 -31.5q-133 0 -143 110zM361 -36l214 801h61l-215 -801h-60z" />
    <glyph glyph-name="questiondown" unicode="&#xbf;" horiz-adv-x="480" 
d="M234 576q13 10 36.5 10t36 -10t15 -21.5t2.5 -27t-1.5 -24.5t-6.5 -19q-8 -21 -43.5 -21t-46 17t-10.5 40t2.5 34.5t15.5 21.5zM391 -125q-51 -41 -146.5 -41t-152 61.5t-56.5 147.5q0 154 196 222l11 122h55l8 -152q-97 -32 -141.5 -77.5t-44.5 -108t34 -105.5t100 -43
q107 0 126 96l74 -10q-12 -71 -63 -112z" />
    <glyph glyph-name="Agrave" unicode="&#xc0;" horiz-adv-x="628" 
d="M255 730h117l239 -730h-87l-71 220h-278l-71 -220h-87zM314 652l-117 -362h233zM425 829l-39 -46l-183 138l54 64z" />
    <glyph glyph-name="Aacute" unicode="&#xc1;" horiz-adv-x="628" 
d="M255 730h117l239 -730h-87l-71 220h-278l-71 -220h-87zM314 652l-117 -362h233zM246 783l-39 46l168 156l54 -64z" />
    <glyph glyph-name="Acircumflex" unicode="&#xc2;" horiz-adv-x="628" 
d="M255 730h117l239 -730h-87l-71 220h-278l-71 -220h-87zM314 652l-117 -362h233zM200 790l-36 36l134 153h37l134 -153l-36 -36l-117 96z" />
    <glyph glyph-name="Atilde" unicode="&#xc3;" horiz-adv-x="628" 
d="M255 730h117l239 -730h-87l-71 220h-278l-71 -220h-87zM314 652l-117 -362h233zM481 930q-27 -99 -89 -99q-28 0 -76.5 18t-64 18t-25.5 -10.5t-18 -33.5l-57 18q15 54 37.5 76.5t51 22.5t77.5 -18t64.5 -18t25.5 10t18 34z" />
    <glyph glyph-name="Adieresis" unicode="&#xc4;" horiz-adv-x="628" 
d="M255 730h117l239 -730h-87l-71 220h-278l-71 -220h-87zM314 652l-117 -362h233zM244 834.5q-12 -9.5 -34.5 -9.5t-34 9.5t-13.5 19.5t-2 27t2 27.5t13.5 20t39 9.5t36.5 -15t9 -37t-2 -32t-14 -19.5zM456 834.5q-12 -9.5 -34.5 -9.5t-34 9.5t-13.5 19.5t-2 27t2 27.5
t13.5 20t39 9.5t36.5 -15t9 -37t-2 -32t-14 -19.5z" />
    <glyph glyph-name="Aring" unicode="&#xc5;" horiz-adv-x="628" 
d="M255 730h117l239 -730h-87l-71 220h-278l-71 -220h-87zM314 652l-117 -362h233zM315 826q47 0 47 57t-47 57q-44 0 -44 -57t44 -57zM315 779q-102 0 -102 104q0 26 7 47.5t31 39.5t64 18q104 0 104 -104.5t-104 -104.5z" />
    <glyph glyph-name="AE" unicode="&#xc6;" horiz-adv-x="911" 
d="M845 730v-70h-300v-274h279v-70h-279v-246h320v-70h-408v316h-208l-133 -316h-87l311 730h505zM457 659h-63l-115 -273h178v273z" />
    <glyph glyph-name="Ccedilla" unicode="&#xc7;" horiz-adv-x="638" 
d="M355 672q-93 0 -139 -52q-41 -45 -50 -148q-4 -43 -4 -106t4 -107.5t16.5 -84.5t33.5 -64q46 -52 139 -52q154 0 159 164l72 -4q-7 -111 -60.5 -171.5t-170.5 -60.5q-165 0 -225 102q-31 51 -43.5 117t-12.5 160.5t12.5 160.5t43.5 117q60 101 225 101q109 0 162 -49.5
t65 -141.5l-71 -13q-21 132 -156 132zM218 -142h66q0 -15 2 -23q5 -20 34 -20t36 10.5t7 32.5t-9.5 32.5t-34.5 14.5l-54 10l7 35h42q56 0 83.5 -19t27.5 -70.5t-22.5 -76.5t-81 -25t-81 25.5t-22.5 73.5z" />
    <glyph glyph-name="Egrave" unicode="&#xc8;" horiz-adv-x="560" 
d="M106 730h388v-70h-300v-254h279v-70h-279v-266h320v-70h-408v730zM399 829l-39 -46l-183 138l54 64z" />
    <glyph glyph-name="Eacute" unicode="&#xc9;" horiz-adv-x="560" 
d="M106 730h388v-70h-300v-254h279v-70h-279v-266h320v-70h-408v730zM252 783l-39 46l168 156l54 -64z" />
    <glyph glyph-name="Ecircumflex" unicode="&#xca;" horiz-adv-x="560" 
d="M106 730h388v-70h-300v-254h279v-70h-279v-266h320v-70h-408v730zM174 790l-36 36l134 153h37l134 -153l-36 -36l-117 96z" />
    <glyph glyph-name="Edieresis" unicode="&#xcb;" horiz-adv-x="560" 
d="M106 730h388v-70h-300v-254h279v-70h-279v-266h320v-70h-408v730zM218 834.5q-12 -9.5 -34.5 -9.5t-34 9.5t-13.5 19.5t-2 27t2 27.5t13.5 20t39 9.5t36.5 -15t9 -37t-2 -32t-14 -19.5zM430 834.5q-12 -9.5 -34.5 -9.5t-34 9.5t-13.5 19.5t-2 27t2 27.5t13.5 20t39 9.5
t36.5 -15t9 -37t-2 -32t-14 -19.5z" />
    <glyph glyph-name="Igrave" unicode="&#xcc;" horiz-adv-x="300" 
d="M106 730h88v-730h-88v730zM259 829l-39 -46l-183 138l54 64z" />
    <glyph glyph-name="Iacute" unicode="&#xcd;" horiz-adv-x="300" 
d="M106 730h88v-730h-88v730zM100 783l-39 46l168 156l54 -64z" />
    <glyph glyph-name="Icircumflex" unicode="&#xce;" horiz-adv-x="300" 
d="M106 730h88v-730h-88v730zM34 790l-36 36l134 153h37l134 -153l-36 -36l-117 96z" />
    <glyph glyph-name="Idieresis" unicode="&#xcf;" horiz-adv-x="300" 
d="M106 730h88v-730h-88v730zM78 834.5q-12 -9.5 -34.5 -9.5t-34 9.5t-13.5 19.5t-2 27t2 27.5t13.5 20t39 9.5t36.5 -15t9 -37t-2 -32t-14 -19.5zM290 834.5q-12 -9.5 -34.5 -9.5t-34 9.5t-13.5 19.5t-2 27t2 27.5t13.5 20t39 9.5t36.5 -15t9 -37t-2 -32t-14 -19.5z" />
    <glyph glyph-name="Eth" unicode="&#xd0;" horiz-adv-x="698" 
d="M58 330v68h48v332h222q172 0 233 -108q30 -52 41.5 -113t11.5 -135.5t-6.5 -125.5t-25.5 -99.5t-50 -79.5q-71 -69 -204 -69h-222v330h-48zM324 660h-130v-262h216v-68h-216v-260h130q98 0 146 56q56 68 56 239t-56 239q-48 56 -146 56z" />
    <glyph glyph-name="Ntilde" unicode="&#xd1;" horiz-adv-x="744" 
d="M550 730h88v-730h-96l-348 582v-582h-88v730h96l348 -583v583zM543 930q-27 -99 -89 -99q-28 0 -76.5 18t-64 18t-25.5 -10.5t-18 -33.5l-57 18q15 54 37.5 76.5t51 22.5t77.5 -18t64.5 -18t25.5 10t18 34z" />
    <glyph glyph-name="Ograve" unicode="&#xd2;" horiz-adv-x="721" 
d="M502 14.5q-58 -28.5 -142.5 -28.5t-142 28t-88 82.5t-43 118.5t-12.5 140.5t7 130t26.5 103.5t50.5 83q69 72 202 72q168 0 231 -112q31 -54 43.5 -118t12.5 -149.5t-12.5 -149.5t-43.5 -118t-89 -82.5zM366 58q52 0 92.5 23.5t61.5 67t30 96t9 120.5t-9 120.5t-30 96.5
q-44 90 -160 90q-93 0 -140 -59q-58 -73 -58 -248t58 -248q47 -59 146 -59zM469 829l-39 -46l-183 138l54 64z" />
    <glyph glyph-name="Oacute" unicode="&#xd3;" horiz-adv-x="721" 
d="M502 14.5q-58 -28.5 -142.5 -28.5t-142 28t-88 82.5t-43 118.5t-12.5 140.5t7 130t26.5 103.5t50.5 83q69 72 202 72q168 0 231 -112q31 -54 43.5 -118t12.5 -149.5t-12.5 -149.5t-43.5 -118t-89 -82.5zM366 58q52 0 92.5 23.5t61.5 67t30 96t9 120.5t-9 120.5t-30 96.5
q-44 90 -160 90q-93 0 -140 -59q-58 -73 -58 -248t58 -248q47 -59 146 -59zM290 783l-39 46l168 156l54 -64z" />
    <glyph glyph-name="Ocircumflex" unicode="&#xd4;" horiz-adv-x="721" 
d="M502 14.5q-58 -28.5 -142.5 -28.5t-142 28t-88 82.5t-43 118.5t-12.5 140.5t7 130t26.5 103.5t50.5 83q69 72 202 72q168 0 231 -112q31 -54 43.5 -118t12.5 -149.5t-12.5 -149.5t-43.5 -118t-89 -82.5zM366 58q52 0 92.5 23.5t61.5 67t30 96t9 120.5t-9 120.5t-30 96.5
q-44 90 -160 90q-93 0 -140 -59q-58 -73 -58 -248t58 -248q47 -59 146 -59zM244 790l-36 36l134 153h37l134 -153l-36 -36l-117 96z" />
    <glyph glyph-name="Otilde" unicode="&#xd5;" horiz-adv-x="721" 
d="M502 14.5q-58 -28.5 -142.5 -28.5t-142 28t-88 82.5t-43 118.5t-12.5 140.5t7 130t26.5 103.5t50.5 83q69 72 202 72q168 0 231 -112q31 -54 43.5 -118t12.5 -149.5t-12.5 -149.5t-43.5 -118t-89 -82.5zM366 58q52 0 92.5 23.5t61.5 67t30 96t9 120.5t-9 120.5t-30 96.5
q-44 90 -160 90q-93 0 -140 -59q-58 -73 -58 -248t58 -248q47 -59 146 -59zM525 930q-27 -99 -89 -99q-28 0 -76.5 18t-64 18t-25.5 -10.5t-18 -33.5l-57 18q15 54 37.5 76.5t51 22.5t77.5 -18t64.5 -18t25.5 10t18 34z" />
    <glyph glyph-name="Odieresis" unicode="&#xd6;" horiz-adv-x="721" 
d="M502 14.5q-58 -28.5 -142.5 -28.5t-142 28t-88 82.5t-43 118.5t-12.5 140.5t7 130t26.5 103.5t50.5 83q69 72 202 72q168 0 231 -112q31 -54 43.5 -118t12.5 -149.5t-12.5 -149.5t-43.5 -118t-89 -82.5zM366 58q52 0 92.5 23.5t61.5 67t30 96t9 120.5t-9 120.5t-30 96.5
q-44 90 -160 90q-93 0 -140 -59q-58 -73 -58 -248t58 -248q47 -59 146 -59zM288 834.5q-12 -9.5 -34.5 -9.5t-34 9.5t-13.5 19.5t-2 27t2 27.5t13.5 20t39 9.5t36.5 -15t9 -37t-2 -32t-14 -19.5zM500 834.5q-12 -9.5 -34.5 -9.5t-34 9.5t-13.5 19.5t-2 27t2 27.5t13.5 20
t39 9.5t36.5 -15t9 -37t-2 -32t-14 -19.5z" />
    <glyph glyph-name="multiply" unicode="&#xd7;" 
d="M156 137l-47 47l133 134l-133 134l47 47l134 -133l134 133l47 -47l-133 -134l133 -134l-47 -47l-134 133z" />
    <glyph glyph-name="Oslash" unicode="&#xd8;" horiz-adv-x="721" 
d="M74 365q0 218 84 307q69 72 202 72q22 0 56 -4l21 87h61l-24 -101q98 -33 138 -136q35 -90 35 -225q0 -86 -12.5 -150t-43.5 -118q-64 -111 -231 -111q-22 0 -58 4l-19 -84h-60l22 97q-95 34 -133 126t-38 236zM360 58q116 0 160 90q39 81 39 217q0 225 -103 284
l-137 -588q18 -3 41 -3zM162 365q0 -227 101 -285l137 588q-26 4 -40 4q-93 0 -140 -59q-58 -73 -58 -248z" />
    <glyph glyph-name="Ugrave" unicode="&#xd9;" horiz-adv-x="697" 
d="M518 730h88v-489q0 -67 -16 -115t-39.5 -74.5t-60.5 -42t-68.5 -19.5t-73.5 -4t-73.5 4t-68 19.5t-60 42t-39.5 74.5t-16 115v489h88v-486q0 -116 55 -154q27 -18 53 -24t61.5 -6t61.5 6t53 24q55 37 55 154v486zM434 829l-39 -46l-183 138l54 64z" />
    <glyph glyph-name="Uacute" unicode="&#xda;" horiz-adv-x="697" 
d="M518 730h88v-489q0 -67 -16 -115t-39.5 -74.5t-60.5 -42t-68.5 -19.5t-73.5 -4t-73.5 4t-68 19.5t-60 42t-39.5 74.5t-16 115v489h88v-486q0 -116 55 -154q27 -18 53 -24t61.5 -6t61.5 6t53 24q55 37 55 154v486zM335 783l-39 46l168 156l54 -64z" />
    <glyph glyph-name="Ucircumflex" unicode="&#xdb;" horiz-adv-x="697" 
d="M518 730h88v-489q0 -67 -16 -115t-39.5 -74.5t-60.5 -42t-68.5 -19.5t-73.5 -4t-73.5 4t-68 19.5t-60 42t-39.5 74.5t-16 115v489h88v-486q0 -116 55 -154q27 -18 53 -24t61.5 -6t61.5 6t53 24q55 37 55 154v486zM238 790l-36 36l134 153h37l134 -153l-36 -36l-117 96z
" />
    <glyph glyph-name="Udieresis" unicode="&#xdc;" horiz-adv-x="697" 
d="M518 730h88v-489q0 -67 -16 -115t-39.5 -74.5t-60.5 -42t-68.5 -19.5t-73.5 -4t-73.5 4t-68 19.5t-60 42t-39.5 74.5t-16 115v489h88v-486q0 -116 55 -154q27 -18 53 -24t61.5 -6t61.5 6t53 24q55 37 55 154v486zM283 834.5q-12 -9.5 -34.5 -9.5t-34 9.5t-13.5 19.5
t-2 27t2 27.5t13.5 20t39 9.5t36.5 -15t9 -37t-2 -32t-14 -19.5zM495 834.5q-12 -9.5 -34.5 -9.5t-34 9.5t-13.5 19.5t-2 27t2 27.5t13.5 20t39 9.5t36.5 -15t9 -37t-2 -32t-14 -19.5z" />
    <glyph glyph-name="Yacute" unicode="&#xdd;" horiz-adv-x="550" 
d="M319 0h-88v254l-225 476h90l179 -390l179 390h90l-225 -476v-254zM224 783l-39 46l168 156l54 -64z" />
    <glyph glyph-name="Thorn" unicode="&#xde;" horiz-adv-x="581" 
d="M318 137h-124v-137h-88v730h88v-138h124q221 0 221 -227.5t-221 -227.5zM194 213h119q54 0 86 22t42 53t10 88.5t-29.5 98.5t-108.5 41h-119v-303z" />
    <glyph glyph-name="germandbls" unicode="&#xdf;" horiz-adv-x="642" 
d="M577 329q39 -51 39 -138.5t-46.5 -146t-140 -58.5t-134.5 49.5t-41 147.5h72q0 -64 22 -95t77.5 -31t80 40.5t24.5 106t-27.5 104t-94.5 38.5h-111v65h64q53 0 81.5 42t28.5 102t-34 93.5t-100.5 33.5t-100.5 -34t-34 -95v-553h-86v553q0 94 58.5 147t164.5 53t162 -52.5
t56 -143.5q0 -50 -23.5 -93t-62.5 -71q67 -13 106 -64z" />
    <glyph glyph-name="agrave" unicode="&#xe0;" horiz-adv-x="586" 
d="M430 548q60 -43 60 -162v-386h-57l-22 89q-96 -103 -211 -103q-76 0 -111.5 40t-35.5 108t42.5 110t159.5 61l149 24v57q0 74 -31.5 102t-86.5 28q-110 0 -131 -107l-70 21q16 74 67 115t138.5 41t139.5 -38zM224 52q90 0 180 97v120l-141 -24q-71 -13 -98 -40.5t-27 -67
t21 -62.5t65 -23zM393 671l-39 -46l-183 138l54 64z" />
    <glyph glyph-name="aacute" unicode="&#xe1;" horiz-adv-x="586" 
d="M430 548q60 -43 60 -162v-386h-57l-22 89q-96 -103 -211 -103q-76 0 -111.5 40t-35.5 108t42.5 110t159.5 61l149 24v57q0 74 -31.5 102t-86.5 28q-110 0 -131 -107l-70 21q16 74 67 115t138.5 41t139.5 -38zM224 52q90 0 180 97v120l-141 -24q-71 -13 -98 -40.5t-27 -67
t21 -62.5t65 -23zM260 625l-39 46l168 156l54 -64z" />
    <glyph glyph-name="acircumflex" unicode="&#xe2;" horiz-adv-x="586" 
d="M430 548q60 -43 60 -162v-386h-57l-22 89q-96 -103 -211 -103q-76 0 -111.5 40t-35.5 108t42.5 110t159.5 61l149 24v57q0 74 -31.5 102t-86.5 28q-110 0 -131 -107l-70 21q16 74 67 115t138.5 41t139.5 -38zM224 52q90 0 180 97v120l-141 -24q-71 -13 -98 -40.5t-27 -67
t21 -62.5t65 -23zM168 632l-36 36l134 153h37l134 -153l-36 -36l-117 96z" />
    <glyph glyph-name="atilde" unicode="&#xe3;" horiz-adv-x="586" 
d="M430 548q60 -43 60 -162v-386h-57l-22 89q-96 -103 -211 -103q-76 0 -111.5 40t-35.5 108t42.5 110t159.5 61l149 24v57q0 74 -31.5 102t-86.5 28q-110 0 -131 -107l-70 21q16 74 67 115t138.5 41t139.5 -38zM224 52q90 0 180 97v120l-141 -24q-71 -13 -98 -40.5t-27 -67
t21 -62.5t65 -23zM449 772q-27 -99 -89 -99q-28 0 -76.5 18t-64 18t-25.5 -10.5t-18 -33.5l-57 18q15 54 37.5 76.5t51 22.5t77.5 -18t64.5 -18t25.5 10t18 34z" />
    <glyph glyph-name="adieresis" unicode="&#xe4;" horiz-adv-x="586" 
d="M430 548q60 -43 60 -162v-386h-57l-22 89q-96 -103 -211 -103q-76 0 -111.5 40t-35.5 108t42.5 110t159.5 61l149 24v57q0 74 -31.5 102t-86.5 28q-110 0 -131 -107l-70 21q16 74 67 115t138.5 41t139.5 -38zM224 52q90 0 180 97v120l-141 -24q-71 -13 -98 -40.5t-27 -67
t21 -62.5t65 -23zM229 676.5q-12 -9.5 -34.5 -9.5t-34 9.5t-13.5 19.5t-2 27t2 27.5t13.5 20t39 9.5t36.5 -15t9 -37t-2 -32t-14 -19.5zM441 676.5q-12 -9.5 -34.5 -9.5t-34 9.5t-13.5 19.5t-2 27t2 27.5t13.5 20t39 9.5t36.5 -15t9 -37t-2 -32t-14 -19.5z" />
    <glyph glyph-name="aring" unicode="&#xe5;" horiz-adv-x="586" 
d="M430 548q60 -43 60 -162v-386h-57l-22 89q-96 -103 -211 -103q-76 0 -111.5 40t-35.5 108t42.5 110t159.5 61l149 24v57q0 74 -31.5 102t-86.5 28q-110 0 -131 -107l-70 21q16 74 67 115t138.5 41t139.5 -38zM224 52q90 0 180 97v120l-141 -24q-71 -13 -98 -40.5t-27 -67
t21 -62.5t65 -23zM303 668q47 0 47 57t-47 57q-44 0 -44 -57t44 -57zM303 621q-102 0 -102 104q0 26 7 47.5t31 39.5t64 18q104 0 104 -104.5t-104 -104.5z" />
    <glyph glyph-name="ae" unicode="&#xe6;" horiz-adv-x="928" 
d="M647 -14q-163 0 -215 122q-106 -122 -230 -122q-77 0 -113.5 40.5t-36.5 108t42.5 110.5t158.5 63l149 26v52q0 74 -31 102t-85.5 28t-88.5 -28t-44 -79l-69 20q34 157 202 157q130 0 175 -78q60 78 182 78q236 0 236 -288v-21h-390q1 -118 36 -169.5t122 -51.5
q142 0 152 115l71 -4q-19 -181 -223 -181zM224 52q101 0 191 107q-11 64 -11 110l-142 -26q-72 -13 -99 -40.5t-27 -66t21.5 -61.5t66.5 -23zM755 470.5q-33 45.5 -111 45.5t-112 -46.5t-41 -128.5h302q-5 84 -38 129.5z" />
    <glyph glyph-name="ccedilla" unicode="&#xe7;" horiz-adv-x="550" 
d="M140 286q0 -49 6 -87t22 -72q33 -71 125 -71q75 0 107.5 29.5t35.5 87.5l70 -3q-7 -89 -56 -136.5t-160 -47.5q-157 0 -208 128q-28 70 -28 153t10 132.5t35 94.5q52 92 191 92q111 0 160 -45.5t55 -131.5l-69 -10q-3 58 -35.5 87.5t-107.5 29.5q-92 0 -125 -71
q-28 -59 -28 -159zM173 -142h66q0 -15 2 -23q5 -20 34 -20t36 10.5t7 32.5t-9.5 32.5t-34.5 14.5l-54 10l7 35h42q56 0 83.5 -19t27.5 -70.5t-22.5 -76.5t-81 -25t-81 25.5t-22.5 73.5z" />
    <glyph glyph-name="egrave" unicode="&#xe8;" horiz-adv-x="578" 
d="M297 -14q-131 0 -187 74.5t-56 225.5q0 300 239 300q236 0 236 -288v-21h-390q1 -118 36 -169.5t122 -51.5q142 0 152 115l71 -4q-19 -181 -223 -181zM405 470.5q-33 45.5 -111 45.5t-112 -46.5t-41 -128.5h302q-5 84 -38 129.5zM406 671l-39 -46l-183 138l54 64z" />
    <glyph glyph-name="eacute" unicode="&#xe9;" horiz-adv-x="578" 
d="M297 -14q-131 0 -187 74.5t-56 225.5q0 300 239 300q236 0 236 -288v-21h-390q1 -118 36 -169.5t122 -51.5q142 0 152 115l71 -4q-19 -181 -223 -181zM405 470.5q-33 45.5 -111 45.5t-112 -46.5t-41 -128.5h302q-5 84 -38 129.5zM265 625l-39 46l168 156l54 -64z" />
    <glyph glyph-name="ecircumflex" unicode="&#xea;" horiz-adv-x="578" 
d="M297 -14q-131 0 -187 74.5t-56 225.5q0 300 239 300q236 0 236 -288v-21h-390q1 -118 36 -169.5t122 -51.5q142 0 152 115l71 -4q-19 -181 -223 -181zM405 470.5q-33 45.5 -111 45.5t-112 -46.5t-41 -128.5h302q-5 84 -38 129.5zM181 632l-36 36l134 153h37l134 -153
l-36 -36l-117 96z" />
    <glyph glyph-name="edieresis" unicode="&#xeb;" horiz-adv-x="570" 
d="M289 -14q-131 0 -187 74.5t-56 225.5q0 300 239 300q236 0 236 -288v-21h-390q1 -118 36 -169.5t122 -51.5q142 0 152 115l71 -4q-19 -181 -223 -181zM397 470.5q-33 45.5 -111 45.5t-112 -46.5t-41 -128.5h302q-5 84 -38 129.5zM217 676.5q-12 -9.5 -34.5 -9.5t-34 9.5
t-13.5 19.5t-2 27t2 27.5t13.5 20t39 9.5t36.5 -15t9 -37t-2 -32t-14 -19.5zM429 676.5q-12 -9.5 -34.5 -9.5t-34 9.5t-13.5 19.5t-2 27t2 27.5t13.5 20t39 9.5t36.5 -15t9 -37t-2 -32t-14 -19.5z" />
    <glyph glyph-name="igrave" unicode="&#xec;" horiz-adv-x="298" 
d="M106 572h86v-572h-86v572zM248 671l-39 -46l-183 138l54 64z" />
    <glyph glyph-name="iacute" unicode="&#xed;" horiz-adv-x="298" 
d="M106 572h86v-572h-86v572zM94 625l-39 46l168 156l54 -64z" />
    <glyph glyph-name="icircumflex" unicode="&#xee;" horiz-adv-x="298" 
d="M106 572h86v-572h-86v572zM23 632l-36 36l134 153h37l134 -153l-36 -36l-117 96z" />
    <glyph glyph-name="idieresis" unicode="&#xef;" horiz-adv-x="298" 
d="M106 572h86v-572h-86v572zM77 676.5q-12 -9.5 -34.5 -9.5t-34 9.5t-13.5 19.5t-2 27t2 27.5t13.5 20t39 9.5t36.5 -15t9 -37t-2 -32t-14 -19.5zM289 676.5q-12 -9.5 -34.5 -9.5t-34 9.5t-13.5 19.5t-2 27t2 27.5t13.5 20t39 9.5t36.5 -15t9 -37t-2 -32t-14 -19.5z" />
    <glyph glyph-name="eth" unicode="&#xf0;" horiz-adv-x="604" 
d="M550 267v-21q0 -194 -146 -244q-44 -16 -102 -16t-102.5 15.5t-71.5 40.5t-44 60q-30 62 -30 144q0 102 48 174q26 40 77 63t130.5 23t137.5 -56q-24 91 -72 164l-105 -42v63l69 27q-20 24 -50 52l42 50q40 -35 74 -75l123 50v-63l-87 -35q109 -160 109 -374zM302 55
q162 0 162 191t-162 191t-162 -191t162 -191z" />
    <glyph glyph-name="ntilde" unicode="&#xf1;" horiz-adv-x="654" 
d="M181 512q101 74 199 74t138 -44.5t40 -135.5v-406h-86v404q0 60 -23 86t-77 26q-93 0 -180 -67v-449h-86v572h51zM507 772q-27 -99 -89 -99q-28 0 -76.5 18t-64 18t-25.5 -10.5t-18 -33.5l-57 18q15 54 37.5 76.5t51 22.5t77.5 -18t64.5 -18t25.5 10t18 34z" />
    <glyph glyph-name="ograve" unicode="&#xf2;" horiz-adv-x="604" 
d="M302 56q50 0 83.5 18.5t49.5 53t22.5 72t6.5 86.5t-6.5 86.5t-22.5 72t-49.5 53t-83.5 18.5t-83.5 -18.5t-50 -53t-22.5 -71.5t-6 -87t6 -87t22.5 -71.5t50 -53t83.5 -18.5zM302 -14q-248 0 -248 300t248 300t248 -300t-248 -300zM411 671l-39 -46l-183 138l54 64z" />
    <glyph glyph-name="oacute" unicode="&#xf3;" horiz-adv-x="604" 
d="M302 56q50 0 83.5 18.5t49.5 53t22.5 72t6.5 86.5t-6.5 86.5t-22.5 72t-49.5 53t-83.5 18.5t-83.5 -18.5t-50 -53t-22.5 -71.5t-6 -87t6 -87t22.5 -71.5t50 -53t83.5 -18.5zM302 -14q-248 0 -248 300t248 300t248 -300t-248 -300zM269 625l-39 46l168 156l54 -64z" />
    <glyph glyph-name="ocircumflex" unicode="&#xf4;" horiz-adv-x="604" 
d="M302 56q50 0 83.5 18.5t49.5 53t22.5 72t6.5 86.5t-6.5 86.5t-22.5 72t-49.5 53t-83.5 18.5t-83.5 -18.5t-50 -53t-22.5 -71.5t-6 -87t6 -87t22.5 -71.5t50 -53t83.5 -18.5zM302 -14q-248 0 -248 300t248 300t248 -300t-248 -300zM185 632l-36 36l134 153h37l134 -153
l-36 -36l-117 96z" />
    <glyph glyph-name="otilde" unicode="&#xf5;" horiz-adv-x="604" 
d="M302 56q50 0 83.5 18.5t49.5 53t22.5 72t6.5 86.5t-6.5 86.5t-22.5 72t-49.5 53t-83.5 18.5t-83.5 -18.5t-50 -53t-22.5 -71.5t-6 -87t6 -87t22.5 -71.5t50 -53t83.5 -18.5zM302 -14q-248 0 -248 300t248 300t248 -300t-248 -300zM467 772q-27 -99 -89 -99
q-28 0 -76.5 18t-64 18t-25.5 -10.5t-18 -33.5l-57 18q15 54 37.5 76.5t51 22.5t77.5 -18t64.5 -18t25.5 10t18 34z" />
    <glyph glyph-name="odieresis" unicode="&#xf6;" horiz-adv-x="604" 
d="M302 56q50 0 83.5 18.5t49.5 53t22.5 72t6.5 86.5t-6.5 86.5t-22.5 72t-49.5 53t-83.5 18.5t-83.5 -18.5t-50 -53t-22.5 -71.5t-6 -87t6 -87t22.5 -71.5t50 -53t83.5 -18.5zM302 -14q-248 0 -248 300t248 300t248 -300t-248 -300zM230 676.5q-12 -9.5 -34.5 -9.5t-34 9.5
t-13.5 19.5t-2 27t2 27.5t13.5 20t39 9.5t36.5 -15t9 -37t-2 -32t-14 -19.5zM442 676.5q-12 -9.5 -34.5 -9.5t-34 9.5t-13.5 19.5t-2 27t2 27.5t13.5 20t39 9.5t36.5 -15t9 -37t-2 -32t-14 -19.5z" />
    <glyph glyph-name="divide" unicode="&#xf7;" 
d="M92 284v68h396v-68h-396zM318.5 88q-11.5 -5 -29 -5t-28.5 5t-15 16q-8 17 -8 36t1.5 28t6.5 20q8 20 43 20q37 0 45 -20q8 -18 8 -37t-1.5 -28t-6 -19.5t-16 -15.5zM318.5 423q-11.5 -5 -29 -5t-28.5 5t-15 15q-8 18 -8 37t1.5 28t6.5 19q8 21 43 21q37 0 45 -21
q8 -17 8 -36t-1.5 -28t-6 -19.5t-16 -15.5z" />
    <glyph glyph-name="oslash" unicode="&#xf8;" horiz-adv-x="604" 
d="M54 286q0 300 248 300q19 0 49 -4l28 104h61l-32 -118q142 -55 142 -282q0 -300 -248 -300q-26 0 -49 3l-28 -104h-60l31 118q-142 54 -142 283zM140 286q0 -165 76 -210l117 437q-15 3 -31 3q-99 0 -134 -72q-28 -59 -28 -158zM302 56q100 0 133 72q29 62 29 158
q0 163 -76 209l-117 -437q10 -2 31 -2z" />
    <glyph glyph-name="ugrave" unicode="&#xf9;" horiz-adv-x="660" 
d="M265 -14q-89 0 -129 44.5t-40 133.5v408h86v-402q0 -59 25.5 -86.5t79.5 -27.5q97 0 181 99v417h86v-572h-57l-27 85q-93 -99 -205 -99zM414 671l-39 -46l-183 138l54 64z" />
    <glyph glyph-name="uacute" unicode="&#xfa;" horiz-adv-x="660" 
d="M265 -14q-89 0 -129 44.5t-40 133.5v408h86v-402q0 -59 25.5 -86.5t79.5 -27.5q97 0 181 99v417h86v-572h-57l-27 85q-93 -99 -205 -99zM306 625l-39 46l168 156l54 -64z" />
    <glyph glyph-name="ucircumflex" unicode="&#xfb;" horiz-adv-x="660" 
d="M265 -14q-89 0 -129 44.5t-40 133.5v408h86v-402q0 -59 25.5 -86.5t79.5 -27.5q97 0 181 99v417h86v-572h-57l-27 85q-93 -99 -205 -99zM219 632l-36 36l134 153h37l134 -153l-36 -36l-117 96z" />
    <glyph glyph-name="udieresis" unicode="&#xfc;" horiz-adv-x="660" 
d="M265 -14q-89 0 -129 44.5t-40 133.5v408h86v-402q0 -59 25.5 -86.5t79.5 -27.5q97 0 181 99v417h86v-572h-57l-27 85q-93 -99 -205 -99zM263 676.5q-12 -9.5 -34.5 -9.5t-34 9.5t-13.5 19.5t-2 27t2 27.5t13.5 20t39 9.5t36.5 -15t9 -37t-2 -32t-14 -19.5zM475 676.5
q-12 -9.5 -34.5 -9.5t-34 9.5t-13.5 19.5t-2 27t2 27.5t13.5 20t39 9.5t36.5 -15t9 -37t-2 -32t-14 -19.5z" />
    <glyph glyph-name="yacute" unicode="&#xfd;" horiz-adv-x="542" 
d="M222 -245l-78 14l88 227l-216 576h89l169 -463l164 463h88zM230 625l-39 46l168 156l54 -64z" />
    <glyph glyph-name="thorn" unicode="&#xfe;" horiz-adv-x="629" 
d="M353 586q222 0 222 -300t-222 -300q-80 0 -161 34v-242h-86v952l86 18v-223q78 61 161 61zM344 512q-83 0 -152 -62v-361q67 -29 152 -29q145 0 145 226t-145 226z" />
    <glyph glyph-name="ydieresis" unicode="&#xff;" horiz-adv-x="542" 
d="M222 -245l-78 14l88 227l-216 576h89l169 -463l164 463h88zM216 676.5q-12 -9.5 -34.5 -9.5t-34 9.5t-13.5 19.5t-2 27t2 27.5t13.5 20t39 9.5t36.5 -15t9 -37t-2 -32t-14 -19.5zM428 676.5q-12 -9.5 -34.5 -9.5t-34 9.5t-13.5 19.5t-2 27t2 27.5t13.5 20t39 9.5
t36.5 -15t9 -37t-2 -32t-14 -19.5z" />
    <glyph glyph-name="dotlessi" unicode="&#x131;" horiz-adv-x="298" 
d="M106 572h86v-572h-86v572z" />
    <glyph glyph-name="Lslash" unicode="&#x141;" horiz-adv-x="482" 
d="M106 730h88v-302l86 35v-63l-86 -35v-295h272v-70h-360v330l-84 -34v63l84 34v337z" />
    <glyph glyph-name="lslash" unicode="&#x142;" horiz-adv-x="298" 
d="M192 0h-86v330l-86 -34v63l86 34v365l86 12v-342l86 35v-63l-86 -35v-365z" />
    <glyph glyph-name="OE" unicode="&#x152;" horiz-adv-x="967" 
d="M355 0q-165 0 -227 100q-30 50 -42 113t-12 151.5t12 151.5t42 114q61 100 227 100h546v-70h-344q72 -75 79 -254h244v-70h-244q-3 -189 -78 -266h363v-70h-566zM507 145q42 74 42 220t-42 220t-152 74q-115 0 -155 -81q-38 -74 -38 -213t38 -213q40 -81 152.5 -81
t154.5 74z" />
    <glyph glyph-name="oe" unicode="&#x153;" horiz-adv-x="989" 
d="M708 -14q-148 0 -203 101q-60 -101 -203 -101q-248 0 -248 300t248 300q145 0 204 -104q59 104 198 104q236 0 236 -288v-21h-390q2 -115 37.5 -168t120.5 -53q140 0 152 115l71 -4q-19 -181 -223 -181zM218 74q34 -18 83 -18t82 17.5t50 49.5q31 58 31 151
q0 102 -27 166q-33 76 -135 76q-99 0 -134 -72q-28 -59 -28 -158q0 -168 78 -212zM816 470.5q-33 45.5 -111.5 45.5t-112 -46.5t-40.5 -128.5h302q-5 84 -38 129.5z" />
    <glyph glyph-name="Scaron" unicode="&#x160;" horiz-adv-x="598" 
d="M498.5 323q43.5 -43 43.5 -132.5t-62.5 -147t-181 -57.5t-173.5 49t-69 141l72 13q19 -132 163 -132q163 0 163 129q0 56 -30 83t-100 46l-66 19q-103 28 -145 71.5t-42 133t60 147.5t174.5 58t166.5 -49t66 -141l-72 -13q-19 132 -152 132q-155 0 -155 -129
q0 -56 27.5 -83.5t93.5 -45.5l69 -19q106 -30 149.5 -73zM421 977l36 -36l-134 -153h-37l-134 153l36 36l117 -96z" />
    <glyph glyph-name="scaron" unicode="&#x161;" horiz-adv-x="540" 
d="M445.5 260.5q38.5 -36.5 38.5 -109t-54 -117.5t-160 -45t-153.5 40.5t-60.5 117.5l70 11q15 -101 137 -101q135 0 135 91q0 40 -24.5 59t-87.5 35l-57 14q-87 22 -123.5 58t-36.5 109.5t52 118t153.5 44.5t147 -40.5t58.5 -117.5l-71 -11q-13 101 -128 101
q-126 0 -126 -91q0 -40 23 -59.5t81 -34.5l58 -14q90 -22 128.5 -58.5zM418 819l36 -36l-134 -153h-37l-134 153l36 36l117 -96z" />
    <glyph glyph-name="Ydieresis" unicode="&#x178;" horiz-adv-x="550" 
d="M319 0h-88v254l-225 476h90l179 -390l179 390h90l-225 -476v-254zM203 834.5q-12 -9.5 -34.5 -9.5t-34 9.5t-13.5 19.5t-2 27t2 27.5t13.5 20t39 9.5t36.5 -15t9 -37t-2 -32t-14 -19.5zM415 834.5q-12 -9.5 -34.5 -9.5t-34 9.5t-13.5 19.5t-2 27t2 27.5t13.5 20t39 9.5
t36.5 -15t9 -37t-2 -32t-14 -19.5z" />
    <glyph glyph-name="Zcaron" unicode="&#x17d;" horiz-adv-x="549" 
d="M511 730v-56l-376 -604h386v-70h-493v56l376 604h-357l1 70h463zM401 977l36 -36l-134 -153h-37l-134 153l36 36l117 -96z" />
    <glyph glyph-name="zcaron" unicode="&#x17e;" horiz-adv-x="520" 
d="M54 506v66h411v-58l-318 -448h331v-66h-436v58l320 448h-308zM400 819l36 -36l-134 -153h-37l-134 153l36 36l117 -96z" />
    <glyph glyph-name="florin" unicode="&#x192;" horiz-adv-x="630" 
d="M439 673q-105 0 -105 -154v-145h170v-60h-170v-316q0 -115 -43 -165.5t-158 -50.5l-5 76q66 0 92 31t26 109v316h-124v60h124v145q0 115 46 170t144 55q74 0 126 -33l-29 -62q-39 24 -94 24z" />
    <glyph glyph-name="circumflex" unicode="&#x2c6;" horiz-adv-x="397" 
d="M82 632l-36 36l134 153h37l134 -153l-36 -36l-117 96z" />
    <glyph glyph-name="caron" unicode="&#x2c7;" horiz-adv-x="367" 
d="M300 819l36 -36l-134 -153h-37l-134 153l36 36l117 -96z" />
    <glyph glyph-name="breve" unicode="&#x2d8;" horiz-adv-x="421" 
d="M278 781h61q0 -60 -21 -95q-25 -44 -105.5 -44t-105.5 37t-25 102h60q0 -56 30 -67q15 -6 48 -6t45.5 18.5t12.5 54.5z" />
    <glyph glyph-name="dotaccent" unicode="&#x2d9;" horiz-adv-x="270" 
d="M182 666q-14 -12 -39.5 -12t-39 12t-16 25t-2.5 34.5t2.5 34.5t16 25t39 12t39.5 -12t16.5 -25t2.5 -34.5t-2.5 -34.5t-16.5 -25z" />
    <glyph glyph-name="ring" unicode="&#x2da;" horiz-adv-x="270" 
d="M134 668q47 0 47 57t-47 57q-44 0 -44 -57t44 -57zM134 621q-102 0 -102 104q0 26 7 47.5t31 39.5t64 18q104 0 104 -104.5t-104 -104.5z" />
    <glyph glyph-name="ogonek" unicode="&#x2db;" horiz-adv-x="328" 
d="M145 -221q-51 0 -76 24.5t-25 65t23 65t70 53.5l91 56l24 -35l-82 -50q-35 -22 -49 -38.5t-14 -38.5q0 -46 49.5 -46t84.5 59l41 -26q-49 -89 -137 -89z" />
    <glyph glyph-name="tilde" unicode="&#x2dc;" horiz-adv-x="406" 
d="M368 772q-28 -99 -88 -99q-29 0 -77.5 18t-64 18t-25.5 -10.5t-18 -33.5l-57 18q15 54 37.5 76.5t51 22.5t77.5 -18t64.5 -18t25.5 10t18 34z" />
    <glyph glyph-name="hungarumlaut" unicode="&#x2dd;" horiz-adv-x="543" 
d="M79 625l-39 46l168 156l54 -64zM322 625l-39 46l168 156l54 -64z" />
    <glyph glyph-name="pi" unicode="&#x3c0;" horiz-adv-x="639" 
d="M64 513v59h511v-59h-60v-513h-86v513h-219v-513h-86v513h-60z" />
    <glyph glyph-name="endash" unicode="&#x2013;" horiz-adv-x="576" 
d="M68 284v68h440v-68h-440z" />
    <glyph glyph-name="emdash" unicode="&#x2014;" horiz-adv-x="909" 
d="M68 284v68h773v-68h-773z" />
    <glyph glyph-name="quoteleft" unicode="&#x2018;" horiz-adv-x="281" 
d="M173.5 641q6.5 -23 6.5 -38.5t-1.5 -24.5t-6.5 -20q-8 -20 -42.5 -20t-45 17t-10.5 49t13.5 65.5t35.5 58.5q33 36 58 55l26 -30q-40 -35 -40 -79q0 -10 6.5 -33z" />
    <glyph glyph-name="quoteright" unicode="&#x2019;" horiz-adv-x="275" 
d="M107.5 680.5q-6.5 23.5 -6.5 38.5t1.5 24t5.5 19q9 21 43.5 21t45 -17t10.5 -54t-26 -82t-45 -62t-36 -30l-26 31q40 35 40 79q0 9 -6.5 32.5z" />
    <glyph glyph-name="quotesinglbase" unicode="&#x201a;" horiz-adv-x="226" 
d="M67 18q-7 23 -7 39.5t2.5 27t14.5 20.5t35.5 10t36 -10t15 -20.5t2.5 -37t-13.5 -59t-35.5 -56.5q-33 -37 -58 -56l-26 30q14 13 21 21q20 23 20 58q0 10 -7 33z" />
    <glyph glyph-name="quotedblleft" unicode="&#x201c;" horiz-adv-x="444" 
d="M173.5 641q6.5 -23 6.5 -41t-2.5 -29.5t-15 -22t-40.5 -10.5t-38 17t-10 49t13.5 65.5t35.5 58.5q33 36 58 55l27 -30q-41 -36 -41 -79q0 -10 6.5 -33zM336.5 641q6.5 -23 6.5 -38.5t-1.5 -24.5t-5.5 -20q-9 -20 -43.5 -20t-45 17t-10.5 49t13.5 65.5t35.5 58.5
q33 36 58 55l26 -30q-40 -35 -40 -79q0 -10 6.5 -33z" />
    <glyph glyph-name="quotedblright" unicode="&#x201d;" horiz-adv-x="444" 
d="M270.5 680.5q-6.5 23.5 -6.5 41t2.5 29t15 22t40.5 10.5t38 -17t10 -54t-26 -82t-45 -62t-36 -30l-27 31q21 18 31 35t10 35t-6.5 41.5zM107.5 680.5q-6.5 23.5 -6.5 38.5t1.5 24t5.5 19q9 21 43.5 21t45 -17t10.5 -54t-26 -82t-45 -62t-36 -30l-26 31q40 35 40 79
q0 9 -6.5 32.5z" />
    <glyph glyph-name="quotedblbase" unicode="&#x201e;" horiz-adv-x="389" 
d="M229.5 17.5q-6.5 23.5 -6.5 41t2.5 29t15 22t40.5 10.5t38 -17t10 -54t-26 -82t-45 -62t-36 -30l-27 31q21 18 31 35t10 35t-6.5 41.5zM66.5 17.5q-6.5 23.5 -6.5 38.5t1.5 24t6.5 20q8 20 42.5 20t45 -17t10.5 -54t-26 -82t-45 -62t-36 -30l-26 31q40 35 40 79
q0 9 -6.5 32.5z" />
    <glyph glyph-name="dagger" unicode="&#x2020;" horiz-adv-x="448" 
d="M430 572v-78h-48l-114 11l-14 -505h-60l-14 505l-114 -11h-48v78h48l112 -12l-4 170h100l-5 -170l113 12h48z" />
    <glyph glyph-name="daggerdbl" unicode="&#x2021;" horiz-adv-x="448" 
d="M18 158v78h48l120 -12l8 141l-8 141l-120 -12h-48v78h48l117 -12l-9 170h100l-10 -170l118 12h48v-78h-48l-121 11l-7 -140l7 -141l121 12h48v-78h-48l-118 11l10 -169h-100l9 169l-117 -11h-48z" />
    <glyph glyph-name="bullet" unicode="&#x2022;" horiz-adv-x="266" 
d="M176.5 245.5q-17.5 -7.5 -49 -7.5t-50.5 15t-22.5 32t-3.5 44.5t3.5 45t22.5 33t50.5 15.5t49 -8t25.5 -23q11 -24 11 -53.5t-2 -42.5t-9.5 -28t-25 -22.5z" />
    <glyph glyph-name="ellipsis" unicode="&#x2026;" horiz-adv-x="692" 
d="M150 2q-13 -10 -36.5 -10t-36 10t-15 21.5t-2.5 27t1.5 24.5t6.5 19q8 21 44 21t46 -16.5t10 -40t-2.5 -35t-15.5 -21.5zM382 2q-13 -10 -36.5 -10t-36 10t-15 21.5t-2.5 27t1.5 24.5t6.5 19q8 21 44 21t46 -16.5t10 -40t-2.5 -35t-15.5 -21.5zM614 2q-13 -10 -36.5 -10
t-36 10t-15 21.5t-2.5 27t1.5 24.5t6.5 19q8 21 44 21t46 -16.5t10 -40t-2.5 -35t-15.5 -21.5z" />
    <glyph glyph-name="perthousand" unicode="&#x2030;" horiz-adv-x="1372" 
d="M341 -66l214 801h61l-215 -801h-60zM1228 8q-30 -16 -82 -16t-87 29.5t-46.5 73t-11.5 108t11.5 108t46.5 73t87 29.5t82.5 -16t46.5 -46q29 -54 29 -148q0 -155 -76 -195zM1153 52q43 0 58.5 36.5t15.5 114t-15.5 114t-58.5 36.5t-59 -36.5t-16 -114t16 -114t59 -36.5z
M278 334q-31 -16 -83 -16t-87 29.5t-46.5 73t-11.5 108t11.5 108t46.5 73t87 29.5t82.5 -16t46.5 -46q29 -54 29 -148q0 -155 -75 -195zM202 378q43 0 58.5 36.5t15.5 114t-15.5 114t-58.5 36.5t-59 -36.5t-16 -114t16 -114t59 -36.5zM828 8q-30 -16 -82 -16t-87 29.5
t-46.5 73t-11.5 108t11.5 108t46.5 73t87 29.5t82.5 -16t46.5 -46q29 -54 29 -148q0 -155 -76 -195zM753 52q43 0 58.5 36.5t15.5 114t-15.5 114t-58.5 36.5t-59 -36.5t-16 -114t16 -114t59 -36.5z" />
    <glyph glyph-name="guilsinglleft" unicode="&#x2039;" horiz-adv-x="305" 
d="M251 470l-122 -155l122 -155l-52 -51l-171 188v36l171 188z" />
    <glyph glyph-name="guilsinglright" unicode="&#x203a;" horiz-adv-x="305" 
d="M54 160l122 155l-122 155l52 51l171 -188v-36l-171 -188z" />
    <glyph glyph-name="fraction" unicode="&#x2044;" horiz-adv-x="271" 
d="M-2 -66l214 801h61l-215 -801h-60z" />
    <glyph glyph-name="Euro" unicode="&#x20ac;" horiz-adv-x="630" 
d="M47 407v61h71q12 130 70 203t183 73q105 0 162.5 -46.5t59.5 -133.5l-76 -4q0 54 -41.5 83.5t-104.5 29.5q-82 0 -120 -52.5t-47 -152.5h233v-61h-237v-84h237v-61h-233q9 -101 47 -153t120 -52q64 0 105.5 30t41.5 85l75 -4q-2 -88 -59 -135t-163 -47q-125 0 -183 72.5
t-70 203.5h-71v61h68q-1 14 -1 42t1 42h-68z" />
    <glyph glyph-name="trademark" unicode="&#x2122;" horiz-adv-x="968" 
d="M858 730v-442h-69v343l-112 -297h-64l-103 295v-341h-68v442h98l106 -313l115 313h97zM70 671v59h292v-59h-112v-383h-68v383h-112z" />
    <glyph glyph-name="Omega" unicode="&#x2126;" horiz-adv-x="809" 
d="M594.5 609.5q-54.5 63.5 -190 63.5t-190 -63.5t-54.5 -188.5q0 -90 33 -144.5t113 -73.5v-203h-206v60h131v99q-83 34 -121 100.5t-38 167.5q0 155 78.5 236.5t254 81.5t254 -81.5t78.5 -236.5q0 -203 -160 -269v-98h132v-60h-206v203q80 19 113 73.5t33 144.5
q0 125 -54.5 188.5z" />
    <glyph glyph-name="partialdiff" unicode="&#x2202;" horiz-adv-x="611" 
d="M557 373q0 -200 -70 -293.5t-229 -93.5q-113 0 -158.5 49.5t-45.5 132.5q0 166 69 252t225 86q87 0 127 -55q-10 153 -105 263l51 50q136 -146 136 -391zM270 55q104 0 149.5 65.5t45.5 191t-128 125.5q-105 0 -150.5 -65.5t-45.5 -191t129 -125.5z" />
    <glyph glyph-name="Delta" unicode="&#x2206;" horiz-adv-x="618" 
d="M262 730h94l268 -730h-630zM309 633l-207 -573h413z" />
    <glyph glyph-name="product" unicode="&#x220f;" horiz-adv-x="747" 
d="M72 670v60h603v-60h-65v-860h-86v860h-301v-860h-86v860h-65z" />
    <glyph glyph-name="summation" unicode="&#x2211;" horiz-adv-x="601" 
d="M51 730h510v-60h-418l257 -399l-254 -400h415v-61h-510v61l257 400l-257 399v60z" />
    <glyph glyph-name="minus" unicode="&#x2212;" 
d="M92 284v68h396v-68h-396z" />
    <glyph glyph-name="radical" unicode="&#x221a;" horiz-adv-x="553" 
d="M605 730v-59h-137l-208 -671h-94l-168 437h87l124 -334l191 627h205z" />
    <glyph glyph-name="infinity" unicode="&#x221e;" horiz-adv-x="629" 
d="M75.5 454q39.5 38 121 38t115.5 -66q32 66 126 66q76 0 115.5 -38t39.5 -135.5t-39.5 -135.5t-121.5 -38t-115 65q-33 -65 -126 -65q-76 0 -115.5 38t-39.5 135.5t39.5 135.5zM433 216q46 0 70 22.5t24 80t-24 80t-67 22.5t-62 -19t-27 -64l-7 -45q19 -77 93 -77z
M196 421q-46 0 -70 -22.5t-24 -80t24 -80t66.5 -22.5t61.5 18t27 60l8 49q-19 78 -93 78z" />
    <glyph glyph-name="integral" unicode="&#x222b;" horiz-adv-x="488" 
d="M199 -37v556q0 115 47 170t145 55q73 0 125 -33l-28 -62q-40 24 -95 24q-106 0 -106 -154v-556q0 -115 -46.5 -169.5t-144.5 -54.5q-75 0 -125 33l28 62q38 -24 94 -24q106 0 106 153z" />
    <glyph glyph-name="approxequal" unicode="&#x2248;" 
d="M92 452q34 -24 77.5 -24t120 21.5t119 21.5t79.5 -19v-68q-38 21 -80 21t-118.5 -21.5t-118.5 -21.5t-79 22v68zM92 252q34 -24 77.5 -24t120 21.5t119 21.5t79.5 -19v-68q-38 21 -80 21t-118.5 -21.5t-118.5 -21.5t-79 22v68z" />
    <glyph glyph-name="notequal" unicode="&#x2260;" 
d="M84 386v68h208l75 281h61l-76 -281h128v-68h-146l-36 -136h182v-68h-201l-66 -248h-60l66 248h-135v68h153l37 136h-190z" />
    <glyph glyph-name="lessequal" unicode="&#x2264;" 
d="M89 344v86l402 169v-75l-336 -137l336 -137v-75zM92 0v68h396v-68h-396z" />
    <glyph glyph-name="greaterequal" unicode="&#x2265;" 
d="M491 430v-86l-402 -169v75l336 137l-336 137v75zM92 0v68h396v-68h-396z" />
    <glyph glyph-name="lozenge" unicode="&#x25ca;" horiz-adv-x="568" 
d="M237 770h94l195 -435l-195 -435h-94l-195 435zM284 -20l155 355l-155 355l-155 -355z" />
    <glyph glyph-name="apple" unicode="&#xf8ff;" horiz-adv-x="919" 
d="M587 -89l-23 1q-14 0 -31.5 -12t-26.5 -12l-46 10q-8 0 -23.5 -6t-24 -6t-24.5 12.5t-29 12.5l-24 -2q-15 0 -33 17l-18 19q-12 6 -25 7t-22 6.5t-16 23t-12.5 22t-19.5 10t-20 14.5q-5 9 -7 23.5t-6 21t-14 13.5q-22 18 -22 38l3 25q0 9 -12.5 26.5t-12.5 26.5t6 23.5
t6 23t-6 21.5t-6 22t12.5 29.5t12.5 29.5l-1 25q0 15 16.5 29.5t19 19.5t4.5 21t6 22t19.5 12t20.5 11t12 20.5t13.5 21t25.5 9.5t24.5 7t20.5 20t29 18l26 -2q13 0 28.5 11.5t26.5 11.5l44 -12l45 12q13 0 29 -12.5t28 -12.5l28 3q16 0 29 -16.5t19.5 -20t21.5 -6.5
t22.5 -8t12.5 -19t10.5 -19t25.5 -15.5t24.5 -18.5t5 -24t3 -20.5t19.5 -19t17 -30.5l-1 -25q0 -13 12 -31.5t12 -27.5t-5.5 -22t-5.5 -20t5.5 -21.5t5 -22.5t-12.5 -20.5t-12 -26.5l2 -32q0 -16 -16 -29t-18.5 -18t-7 -24t-10 -25.5t-18 -12t-17.5 -10.5t-14 -21.5
t-16 -21.5t-24.5 -9.5t-22.5 -7.5t-18.5 -16.5t-28.5 -13.5zM460 -6l33 -7q6 0 17 7q15 10 27 10l15 -1q12 0 21 10t12.5 12t16.5 5.5t18.5 7.5t12 15.5t10 15t12.5 7.5t13 8.5t7 18.5t5.5 18t13.5 13t11 23l-1 20q0 11 8.5 20.5t9.5 15.5l-8 32l8 28q0 8 -9 22t-9 23l1 17
q0 12 -12 22t-14 14t-2.5 15.5t-3.5 17t-17.5 13t-18.5 11.5t-8 14t-9 14t-16 6t-16 4.5t-14 14.5t-21 12l-20 -2q-9 0 -20 9t-21 9l-33 -9l-32 9q-8 0 -20 -8.5t-22 -8.5l-17 1q-11 0 -21.5 -12.5t-15 -15t-17.5 -5t-18 -6.5t-10 -15t-9 -15t-14.5 -8t-14.5 -9
q-2 -4 -3.5 -15.5t-4 -15.5t-14.5 -14.5t-12 -21.5l1 -16q0 -8 -8.5 -23t-8.5 -23l8 -30l-8 -33q0 -8 8.5 -20.5t8.5 -20.5l-2 -16q0 -11 12.5 -22.5t14.5 -15.5t3.5 -14.5t5.5 -17t14 -10.5t14 -7.5t9.5 -16.5t11.5 -17t15.5 -4t15.5 -3t17.5 -15.5t22.5 -12.5l15 1
q10 0 22 -8.5t18 -9.5zM460 417q70 0 120 -49.5t50 -120.5t-50 -120.5t-120 -49.5t-120 49.5t-50 120.5t50 120.5t120 49.5zM503 292h52v68h-191v-68h54v-175h85v175z" />
    </font>
</defs>
</svg>
