<?xml version="1.0" standalone="no"?>
<!DOCTYPE svg PUBLIC "-//W3C//DTD SVG 1.1//EN" "http://www.w3.org/Graphics/SVG/1.1/DTD/svg11.dtd" >
<svg xmlns="http://www.w3.org/2000/svg" xmlns:xlink="http://www.w3.org/1999/xlink" version="1.1">
<metadata>
Created by FontForge 20170731 at Mon Nov 11 15:00:07 2019
 By Aleksey,,,
Copyright 2018 The Roboto Slab Project Authors (https://github.com/googlefonts/robotoslab)
</metadata>
<defs>
<font id="RobotoSlab-Bold" horiz-adv-x="0" >
  <font-face 
    font-family="Roboto Slab"
    font-weight="700"
    font-stretch="normal"
    units-per-em="2048"
    panose-1="0 0 0 0 0 0 0 0 0 0"
    ascent="1638"
    descent="-410"
    x-height="1082"
    cap-height="1456"
    bbox="-374 -555 2714 2146"
    underline-thickness="100"
    underline-position="-300"
    unicode-range="U+000D-FFFD"
  />
<missing-glyph horiz-adv-x="1038" 
d="M100 0v1456h838v-1456h-838zM154 54h730v1348h-730v-1348zM858 20l-738 1416h60l738 -1416h-60zM120 20l738 1416h60l-738 -1416h-60z" />
    <glyph glyph-name="fi" unicode="fi" horiz-adv-x="1337" 
d="M39 0v175l156 30v672h-161v205h161v74q0 204 124.5 314.5t350.5 110.5q78 0 154 -15.5t176 -44.5l-42 -230q-69 21 -132 33.5t-126 12.5q-109 0 -161 -46t-52 -135v-74h656v-877l155 -30v-175h-588v175l141 30v672h-364v-672l141 -30v-175h-589z" />
    <glyph glyph-name="fl" unicode="fl" horiz-adv-x="1421" 
d="M39 0v175l156 30v672h-136v205h136v47q0 217 131 334.5t369 117.5q86 0 170 -15.5t195 -44.5h172v-1316l141 -30v-175h-574v175l141 30v1119q-59 12 -111.5 19t-105.5 7q-120 0 -178 -56t-58 -165v-47h240v-205h-240v-672l141 -30v-175h-589z" />
    <glyph glyph-name=".notdef" horiz-adv-x="1038" 
d="M100 0v1456h838v-1456h-838zM154 54h730v1348h-730v-1348zM858 20l-738 1416h60l738 -1416h-60zM120 20l738 1416h60l-738 -1416h-60z" />
    <glyph glyph-name=".null" 
 />
    <glyph glyph-name="nonmarkingreturn" horiz-adv-x="682" 
 />
    <glyph glyph-name="CR" unicode="&#xd;" horiz-adv-x="502" 
 />
    <glyph glyph-name="space" unicode=" " horiz-adv-x="502" 
 />
    <glyph glyph-name="exclam" unicode="!" horiz-adv-x="507" 
d="M119 502v954h292v-954h-292zM119 0v256h292v-256h-292z" />
    <glyph glyph-name="quotedbl" unicode="&#x22;" horiz-adv-x="786" 
d="M139 1032v297v231h216v-255l-87 -273h-129zM476 1032v297v231h216v-255l-87 -273h-129z" />
    <glyph glyph-name="numbersign" unicode="#" horiz-adv-x="1198" 
d="M194 0l72 410h-227v169h256l51 290h-231v171h261l74 416h183l-73 -416h192l73 416h184l-74 -416h220v-171h-250l-51 -290h226v-169h-255l-72 -410h-183l72 410h-192l-72 -410h-184zM479 579h192l51 290h-192z" />
    <glyph glyph-name="dollar" unicode="$" horiz-adv-x="1107" 
d="M484 -214v197q-124 13 -222 67t-152.5 153.5t-52.5 245.5l2 5h284q0 -89 28.5 -144t77.5 -80.5t112 -25.5q61 0 103 22t63.5 62.5t21.5 94.5t-20 94t-65 72t-121 61q-148 54 -244.5 114.5t-144 143.5t-47.5 203q0 168 107.5 275.5t289.5 126.5v215h159v-218
q175 -26 275.5 -146.5t98.5 -313.5l-3 -5h-284q0 118 -49 182t-132 64q-86 0 -128.5 -49.5t-42.5 -131.5q0 -52 19 -90t64.5 -69.5t124.5 -62.5q147 -58 243.5 -119.5t144 -143t47.5 -200.5q0 -173 -107.5 -277.5t-290.5 -123.5v-198h-159z" />
    <glyph glyph-name="percent" unicode="%" horiz-adv-x="1429" 
d="M427 109l-142 75l711 1138l142 -75zM1064 -20q-100 0 -171.5 39.5t-109.5 107.5t-38 153v77q0 85 37.5 153t109 107.5t170.5 39.5q100 0 170.5 -39t108.5 -107t38 -154v-77q0 -86 -37.5 -154t-107.5 -107t-170 -39zM1064 142q65 0 93 38t28 100v77q0 57 -32 97.5
t-91 40.5q-60 0 -91.5 -40.5t-31.5 -97.5v-77q0 -57 34.5 -97.5t90.5 -40.5zM367 800q-99 0 -170.5 39t-109.5 106.5t-38 153.5v77q0 86 37.5 154t108.5 107.5t170 39.5q101 0 171.5 -39t108 -107t37.5 -155v-77q0 -86 -37.5 -153.5t-107.5 -106.5t-170 -39zM367 962
q58 0 90 39.5t32 97.5v77q0 58 -32.5 98.5t-91.5 40.5t-90.5 -40.5t-31.5 -98.5v-77q0 -58 32 -97.5t92 -39.5z" />
    <glyph glyph-name="ampersand" unicode="&#x26;" horiz-adv-x="1278" 
d="M521 -21q-145 0 -252 52t-165.5 145t-58.5 216q0 113 60 196.5t182 170.5q5 4 10.5 8t10.5 7q-68 92 -101.5 168t-33.5 155q0 116 49 201t138.5 132t209.5 47q106 0 186.5 -45.5t126 -121.5t45.5 -170q0 -98 -49 -179t-134 -142l-93 -66l276 -322q36 60 56 130t20 148
h218q0 -138 -34 -254t-104 -206l208 -244l-2 -5h-324l-77 89q-85 -55 -175 -82.5t-193 -27.5zM536 203q53 0 106 13.5t102 40.5l-300 348l-19 -13q-51 -48 -69.5 -93.5t-18.5 -91.5q0 -89 55 -146.5t144 -57.5zM520 911l86 56q56 36 75.5 74t19.5 83q0 50 -36.5 89t-95.5 39
q-65 0 -100 -43.5t-35 -108.5q0 -43 21.5 -88.5t64.5 -100.5z" />
    <glyph glyph-name="quotesingle" unicode="'" horiz-adv-x="449" 
d="M139 1032v297v231h216v-255l-87 -273h-129z" />
    <glyph glyph-name="parenleft" unicode="(" horiz-adv-x="685" 
d="M585 -450q-96 41 -185 131t-159 223t-111 301.5t-41 364.5v22q0 196 41 364.5t111 301.5t159 223t185 131h6l53 -146q-65 -49 -121.5 -128t-98.5 -188t-65.5 -248t-23.5 -308v-26q0 -169 23.5 -308t65.5 -248.5t98.5 -188.5t121.5 -130l-53 -143h-6z" />
    <glyph glyph-name="parenright" unicode=")" horiz-adv-x="712" 
d="M115 -450l-54 143q65 49 120.5 128.5t98 188.5t66.5 249t24 309v26q0 168 -24.5 307.5t-67 249t-98 190t-119.5 129.5l54 142h6q97 -40 188 -132t164 -227t115.5 -302.5t42.5 -358.5v-22q0 -192 -42.5 -359.5t-115.5 -302t-164 -226.5t-188 -132h-6z" />
    <glyph glyph-name="asterisk" unicode="*" horiz-adv-x="914" 
d="M628 579l-175 290l-173 -281l-152 106l208 272l-302 89l57 177l297 -123l-18 347h188l-20 -353l291 120l56 -180l-306 -89l200 -265z" />
    <glyph glyph-name="plus" unicode="+" horiz-adv-x="1098" 
d="M411 146v414h-362v252h362v394h277v-394h359v-252h-359v-414h-277z" />
    <glyph glyph-name="comma" unicode="," horiz-adv-x="503" 
d="M202 -364l-144 78q39 70 60 144.5t21 166.5v218h262l-1 -204q0 -117 -57.5 -223.5t-140.5 -179.5z" />
    <glyph glyph-name="hyphen" unicode="-" horiz-adv-x="815" 
d="M131 510v225h564v-225h-564z" />
    <glyph glyph-name="period" unicode="." horiz-adv-x="522" 
d="M129 0v256h291v-256h-291z" />
    <glyph glyph-name="slash" unicode="/" horiz-adv-x="796" 
d="M-23 -125l601 1581h269l-601 -1581h-269z" />
    <glyph glyph-name="zero" unicode="0" horiz-adv-x="1170" 
d="M591 -21q-228 0 -361 149.5t-133 438.5v321q0 288 132.5 438.5t359.5 150.5q226 0 359.5 -150.5t133.5 -438.5v-321q0 -289 -132.5 -438.5t-358.5 -149.5zM591 203q98 0 149 80t51 256v379q0 174 -52 254t-150 80q-99 0 -150 -80t-51 -254v-379q0 -176 51.5 -256
t151.5 -80z" />
    <glyph glyph-name="one" unicode="1" horiz-adv-x="905" 
d="M65 0v175l246 30v986h-249v167l540 98v-1251l246 -30v-175h-783z" />
    <glyph glyph-name="two" unicode="2" horiz-adv-x="1136" 
d="M77 0v191l472 507q72 81 113 141t58.5 109.5t17.5 98.5q0 85 -48.5 144t-142.5 59q-101 0 -153 -65.5t-52 -180.5h-284l-2 6q-3 132 56.5 237.5t172 167.5t265.5 62q150 0 257.5 -53.5t165.5 -149.5t58 -222q0 -87 -31 -163.5t-97 -161.5t-170 -195l-283 -304l2 -5h377
l15 139h226v-362h-993z" />
    <glyph glyph-name="three" unicode="3" horiz-adv-x="1112" 
d="M554 -21q-139 0 -253 49t-180.5 142.5t-63.5 226.5l2 6h283q0 -58 26 -103t73.5 -71t112.5 -26q101 0 159.5 56.5t58.5 157.5q0 102 -58 159t-175 57h-158v219h164q70 0 115 24.5t67 69.5t22 106q0 93 -50 146.5t-145 53.5q-57 0 -101 -22.5t-68.5 -63.5t-24.5 -95h-283
l-2 6q-3 116 57 206.5t169.5 142t250.5 51.5q221 0 355 -107.5t134 -304.5q0 -102 -56.5 -184t-168.5 -134q121 -43 184.5 -132t63.5 -207q0 -133 -66 -229t-181.5 -148t-262.5 -52z" />
    <glyph glyph-name="four" unicode="4" horiz-adv-x="1158" 
d="M492 0v175l156 30v143h-594l-14 143l605 965h294v-914h165v-194h-165v-143l155 -30v-175h-602zM312 542h336v525l-6 2l-24 -42z" />
    <glyph glyph-name="five" unicode="5" horiz-adv-x="1092" 
d="M548 -21q-133 0 -243.5 49.5t-175.5 141.5t-62 220l2 5l280 14q0 -97 55 -151.5t144 -54.5q102 0 151 73t49 189q0 126 -52 202t-155 76q-83 0 -127.5 -31t-63.5 -84l-258 17l84 811h838v-332h-180l-26 98h-392l-41 -336q27 20 62 35.5t75.5 25t86.5 9.5q140 2 238.5 -56
t150 -168t51.5 -265q0 -140 -56.5 -250.5t-166 -174t-268.5 -63.5z" />
    <glyph glyph-name="six" unicode="6" horiz-adv-x="1144" 
d="M611 -21q-153 0 -270.5 70.5t-183.5 203t-66 316.5v256q0 206 74.5 351.5t206.5 223t303 77.5q82 0 151.5 -15.5t139.5 -45.5l-51 -213q-54 19 -112 32t-120 13q-144 0 -218.5 -95t-75.5 -280l3 -5q49 51 124.5 80t166.5 29q131 0 225 -63t144 -174t50 -254
q0 -147 -62.5 -261.5t-173 -180t-255.5 -65.5zM605 203q63 0 109 38t71 103.5t25 145.5q0 117 -57.5 191.5t-162.5 74.5q-45 0 -85 -12t-71 -33.5t-52 -51.5v-97q0 -173 62 -266t161 -93z" />
    <glyph glyph-name="seven" unicode="7" horiz-adv-x="1107" 
d="M330 0l14 148q23 214 80 404.5t150 360t223 318.5h-513l-11 -144h-224v369h1029v-225q-117 -137 -194 -261.5t-125 -250t-76 -264.5t-47 -307l-14 -148h-292z" />
    <glyph glyph-name="eight" unicode="8" horiz-adv-x="1115" 
d="M564 -21q-148 0 -260 48.5t-174.5 142t-62.5 228.5q0 118 67 208.5t182 139.5q-102 47 -159 131t-57 193q0 130 58 220.5t162 138.5t242 48q139 0 243.5 -48t162.5 -138.5t58 -220.5q0 -109 -58 -193t-159 -131q116 -49 183 -140t67 -208q0 -135 -62.5 -228.5
t-173.5 -142t-259 -48.5zM564 203q61 0 107 26t71.5 74.5t25.5 114.5t-26.5 114t-72.5 75t-107 27q-60 0 -106 -27t-71.5 -75.5t-25.5 -113.5q0 -100 56 -157.5t149 -57.5zM564 859q52 0 90.5 24.5t59 69t20.5 104.5q0 59 -21 102.5t-59.5 68t-91.5 24.5q-80 0 -124.5 -52.5
t-44.5 -142.5q0 -91 45 -144.5t126 -53.5z" />
    <glyph glyph-name="nine" unicode="9" horiz-adv-x="1141" 
d="M501 -21q-76 0 -156.5 15.5t-148.5 45.5l33 211q63 -23 129.5 -35.5t130.5 -12.5q127 0 200 87t75 271l-2 22q-49 -63 -117.5 -95.5t-150.5 -32.5q-129 0 -226.5 60.5t-151 172.5t-53.5 269q0 147 63.5 265t174 186.5t251.5 68.5q149 0 262 -69t176 -200t63 -316v-316
q0 -188 -70.5 -322t-195 -204.5t-286.5 -70.5zM557 669q67 0 120 27.5t85 73.5v156q0 161 -56 243.5t-152 82.5q-59 0 -103.5 -39.5t-70 -107t-25.5 -148.5q0 -88 22.5 -153t67.5 -100t112 -35z" />
    <glyph glyph-name="colon" unicode=":" horiz-adv-x="455" 
d="M91 0v256h291v-256h-291zM91 825v256h291v-256h-291z" />
    <glyph glyph-name="semicolon" unicode=";" horiz-adv-x="453" 
d="M90 825v256h291v-256h-291zM172 -364l-144 78q39 70 60 144.5t21 166.5v218h262l-1 -204q0 -117 -57.5 -223.5t-140.5 -179.5z" />
    <glyph glyph-name="less" unicode="&#x3c;" horiz-adv-x="1012" 
d="M919 69l-861 367v227l861 366v-272l-522 -194l-54 -13v-6l54 -13l522 -190v-272z" />
    <glyph glyph-name="equal" unicode="=" horiz-adv-x="1123" 
d="M123 763v229h896v-229h-896zM123 332v229h896v-229h-896z" />
    <glyph glyph-name="greater" unicode="&#x3e;" horiz-adv-x="1031" 
d="M104 60v270l524 196l61 13v6l-61 17l-524 189v269l871 -366v-227z" />
    <glyph glyph-name="question" unicode="?" horiz-adv-x="986" 
d="M333 414q0 73 9 122.5t29.5 87.5t58.5 75t98 84q52 42 86 87t52 93t18 99q0 86 -47.5 134.5t-133.5 48.5q-72 0 -123.5 -40t-52.5 -120h-283l-3 6q-2 122 56.5 208.5t163 132t241.5 45.5q223 0 348.5 -109.5t125.5 -297.5q0 -87 -33.5 -161t-92 -140t-135.5 -131
q-38 -32 -57.5 -61.5t-26 -68t-6.5 -94.5h-292zM333 0v256h292v-256h-292z" />
    <glyph glyph-name="at" unicode="@" horiz-adv-x="1806" 
d="M875 -453q-264 0 -449 112.5t-277.5 321t-81.5 497.5q12 285 123 496.5t305 327.5t453 116q256 0 435 -109.5t269 -310t79 -476.5q-6 -149 -59.5 -272.5t-155.5 -197t-250 -73.5q-92 0 -151.5 44t-83.5 123q-88 -164 -263 -164q-141 0 -216.5 120t-55.5 322
q16 166 71.5 290t150 193t229.5 69q93 0 163.5 -25t157.5 -81l2 -4l-51 -573q-4 -63 4.5 -99t29.5 -51t51 -15q104 0 172 110.5t76 283.5q16 348 -137.5 544t-470.5 196q-202 0 -351 -96t-234 -272.5t-95 -415.5q-12 -237 58 -408t211.5 -264t345.5 -93q85 0 175.5 20
t155.5 50l38 -147q-67 -42 -170.5 -65.5t-202.5 -23.5zM840 158q50 0 94.5 26.5t80.5 96.5q1 6 1.5 15t2.5 25l41 464q-22 9 -45.5 14t-49.5 5q-110 0 -168 -96.5t-76 -291.5q-10 -127 19.5 -192.5t99.5 -65.5z" />
    <glyph glyph-name="A" unicode="A" horiz-adv-x="1512" 
d="M41 0v175l104 15l463 1266h299l460 -1266l104 -15v-175h-496v175l101 18l-64 200h-512l-64 -200l101 -18v-175h-496zM569 608h374l-170 499l-14 44h-6l-15 -47z" />
    <glyph glyph-name="B" unicode="B" horiz-adv-x="1344" 
d="M56 0v175l155 30v1045l-155 30v176h155h492q257 0 401 -100t144 -299q0 -101 -53.5 -180.5t-155.5 -119.5q87 -19 145.5 -67t87.5 -116.5t29 -149.5q0 -209 -138 -316.5t-391 -107.5h-716zM503 224h269q116 0 177 50.5t61 149.5q0 72 -23 121t-70.5 74t-122.5 25h-291
v-420zM503 846h210q117 0 180 48t63 140q0 101 -63.5 149t-189.5 48h-200v-385z" />
    <glyph glyph-name="C" unicode="C" horiz-adv-x="1321" 
d="M749 -21q-212 0 -369 88.5t-242.5 251t-85.5 384.5v49q0 212 82.5 375.5t235.5 256.5t364 93q148 0 277.5 -42t231.5 -128v-352h-217l-30 221q-33 24 -72 41t-84.5 26t-98.5 9q-124 0 -213 -61t-136.5 -172.5t-47.5 -264.5v-51q0 -153 50 -265t142 -173.5t218 -61.5
q63 0 126.5 14.5t115.5 37.5l30 205h217v-348q-85 -56 -212 -94.5t-282 -38.5z" />
    <glyph glyph-name="D" unicode="D" horiz-adv-x="1426" 
d="M56 0v175l157 33v1038l-157 34v176h157h482q195 0 344 -91.5t232.5 -253t83.5 -370.5v-27q0 -207 -82.5 -368.5t-230.5 -253.5t-343 -92h-643zM505 223h179q121 0 205 63.5t128.5 174.5t44.5 253v28q0 144 -44.5 254.5t-128.5 173t-205 62.5h-179v-1009z" />
    <glyph glyph-name="E" unicode="E" horiz-adv-x="1308" 
d="M56 0v175l155 30v1045l-155 30v176h1130v-393h-224l-13 168h-446v-366h493v-225h-493v-416h470l13 174h222v-398h-1152z" />
    <glyph glyph-name="F" unicode="F" horiz-adv-x="1265" 
d="M56 0v175l155 30v1045l-155 30v176h1159v-399h-224l-13 174h-475v-401h510v-225h-510v-400l156 -30v-175h-603z" />
    <glyph glyph-name="G" unicode="G" horiz-adv-x="1373" 
d="M733 -21q-217 0 -370 90t-234.5 250t-81.5 371v50q0 218 81 384t229.5 259.5t351.5 93.5q157 0 295 -43t240 -129v-323h-216l-41 195q-39 34 -105 54.5t-151 20.5q-122 0 -210.5 -64t-135.5 -179t-47 -267v-52q0 -148 46.5 -257.5t136.5 -169.5t221 -60q77 0 141.5 14.5
t106.5 35.5v247l-208 16v205h501v-589q-97 -69 -233.5 -111t-316.5 -42z" />
    <glyph glyph-name="H" unicode="H" horiz-adv-x="1600" 
d="M56 0v175l155 30v1045l-155 30v176h603v-176l-156 -30v-420h594v420l-156 30v176h156h291h156v-176l-156 -30v-1045l156 -30v-175h-603v175l156 30v400h-594v-400l156 -30v-175h-603z" />
    <glyph glyph-name="I" unicode="I" horiz-adv-x="714" 
d="M56 0v175l155 30v1045l-155 30v176h602v-176l-155 -30v-1045l155 -30v-175h-602z" />
    <glyph glyph-name="J" unicode="J" horiz-adv-x="1202" 
d="M553 -21q-152 0 -266.5 51.5t-180 157.5t-71.5 269l2 6h274q8 -143 64 -199.5t149 -56.5q60 0 105.5 26t72 77.5t26.5 126.5v813l-196 30v176h643v-176l-156 -30v-813q0 -140 -54 -243t-158 -159t-254 -56z" />
    <glyph glyph-name="K" unicode="K" horiz-adv-x="1545" 
d="M442 357l-151 173l713 735l2 3l-144 12v176h599v-176l-137 -27zM56 0v175l155 30v1045l-155 30v176h595v-176l-148 -30v-1045l148 -30v-175h-595zM894 0v175l136 12h1l-370 510l193 193l516 -690l143 -25v-175h-619z" />
    <glyph glyph-name="L" unicode="L" horiz-adv-x="1200" 
d="M56 0v175l155 30v1045l-155 30v176h155h292h176v-176l-176 -30v-1026h411l14 213h223v-437h-1095z" />
    <glyph glyph-name="M" unicode="M" horiz-adv-x="2066" 
d="M56 0v175l155 30v1045l-155 30v176h155h432l397 -1015h6l384 1015h588v-176l-156 -30v-1045l156 -30v-175h-603v175l163 30v279l5 657l-6 1l-435 -1122h-221l-445 1113l-6 -1l17 -618v-309l172 -30v-175h-603z" />
    <glyph glyph-name="N" unicode="N" horiz-adv-x="1604" 
d="M56 0v175l155 30v1045l-155 30v176h155h296l634 -1010l6 1v803l-186 30v176h447h156v-176l-156 -30v-1250h-282l-648 1000l-6 -1v-794l187 -30v-175h-603z" />
    <glyph glyph-name="O" unicode="O" horiz-adv-x="1446" 
d="M723 -21q-147 0 -268 55t-208.5 154.5t-134.5 234t-47 294.5v22q0 159 47 293.5t134 234.5t208 155t268 55q148 0 270 -55t210 -155t135.5 -234.5t47.5 -293.5v-22q0 -160 -47.5 -294.5t-135.5 -234t-209.5 -154.5t-269.5 -55zM723 206q124 0 206 64t123.5 179t41.5 268
v24q0 151 -42 265.5t-124.5 178.5t-205.5 64q-122 0 -203 -63.5t-121.5 -177.5t-40.5 -267v-24q0 -153 40.5 -268t122 -179t203.5 -64z" />
    <glyph glyph-name="P" unicode="P" horiz-adv-x="1325" 
d="M56 0v175l155 30v1045l-155 30v176h155h538q167 0 288 -58.5t186 -163t65 -243.5t-65 -243.5t-186 -162t-288 -57.5h-246v-323l156 -30v-175h-603zM503 753h246q122 0 184.5 66.5t62.5 169.5q0 105 -62.5 173.5t-184.5 68.5h-246v-478z" />
    <glyph glyph-name="Q" unicode="Q" horiz-adv-x="1449" 
d="M1293 -281l-411 278q-39 -8 -78.5 -13t-78.5 -5q-147 0 -268.5 55t-208.5 154t-134 234t-47 295v22q0 159 47 294t134 234.5t208 154.5t268 55q148 0 269.5 -55t210 -154.5t136 -234.5t47.5 -294v-22q0 -190 -68.5 -347t-191.5 -256l310 -193zM725 206q124 0 206.5 64
t123.5 179t41 268v24q0 151 -42 265.5t-124.5 178.5t-205.5 64t-204 -63.5t-121 -177.5t-40 -267v-24q0 -153 40.5 -268t122.5 -179t203 -64z" />
    <glyph glyph-name="R" unicode="R" horiz-adv-x="1408" 
d="M56 0v175l155 30v1045l-155 30v176h690q168 0 288 -52t184.5 -149t64.5 -233q0 -128 -64 -229t-178 -159t-263 -59h-275v-370l156 -30v-175h-603zM993 0l-245 629l263 65l212 -490l124 -29v-175h-354zM503 800h238q126 0 188.5 53.5t62.5 155.5q0 101 -62 161.5
t-184 60.5h-243v-431z" />
    <glyph glyph-name="S" unicode="S" horiz-adv-x="1247" 
d="M650 -21q-161 0 -293 36t-260 125v352h226l31 -207q45 -38 124 -61.5t172 -23.5q79 0 133.5 22t83 62.5t28.5 95.5q0 52 -25.5 92.5t-84 74t-158.5 64.5q-173 51 -286.5 111.5t-170 145t-56.5 203.5q0 118 65.5 208.5t181.5 142.5t268 54q168 2 297.5 -40t223.5 -117
v-328h-219l-38 200q-38 24 -102.5 42t-146.5 18q-70 0 -123.5 -21t-84.5 -61t-31 -97q0 -49 27 -85.5t90.5 -69t175.5 -69.5q241 -67 365.5 -177t124.5 -289q0 -124 -67 -214.5t-188 -139.5t-283 -49z" />
    <glyph glyph-name="T" unicode="T" horiz-adv-x="1389" 
d="M391 0v175l156 30v1026h-265l-16 -174h-221v399h1299v-399h-222l-16 174h-267v-1026l157 -30v-175h-605z" />
    <glyph glyph-name="U" unicode="U" horiz-adv-x="1555" 
d="M776 -21q-173 0 -304.5 60t-204.5 174t-73 277v760l-155 30v176h603v-176l-156 -30v-760q0 -96 35 -160t100 -95.5t155 -31.5q92 0 157.5 31.5t100.5 95.5t35 160v760l-155 30v176h603v-176l-156 -30v-760q0 -163 -73.5 -277.5t-205 -174t-306.5 -59.5z" />
    <glyph glyph-name="V" unicode="V" horiz-adv-x="1535" 
d="M632 0l-468 1264l-130 16v176h579v-176l-131 -20l286 -859l22 -80h6l21 78l286 861l-153 20v176h552v-176l-132 -16l-439 -1264h-299z" />
    <glyph glyph-name="W" unicode="W" horiz-adv-x="2202" 
d="M521 0l-338 1265l-149 15v176h586v-176l-157 -23l171 -708l31 -130h6l37 130l288 907h215l299 -932l35 -115h6l30 115l177 733l-166 23v176h575v-176l-139 -15l-342 -1265h-264l-276 851l-35 120h-6l-39 -124l-279 -847h-266z" />
    <glyph glyph-name="X" unicode="X" horiz-adv-x="1514" 
d="M36 0v175l127 24l412 522l-388 534l-118 25v176h569v-176l-139 -13l250 -350l250 350l-136 13v176h561v-176l-129 -25l-373 -508l418 -547l139 -25v-175h-583v175l125 12l-270 370l-276 -370l122 -12v-175h-561z" />
    <glyph glyph-name="Y" unicode="Y" horiz-adv-x="1508" 
d="M452 0v175l156 30v294l-432 761l-140 20v176h581v-176l-119 -17l242 -465l22 -47l6 1l22 44l269 467l-160 17v176h570v-176l-144 -20l-426 -738v-317l156 -30v-175h-603z" />
    <glyph glyph-name="Z" unicode="Z" horiz-adv-x="1226" 
d="M74 0v192l710 1039h-443l-23 -186h-223l12 411h1036v-186l-713 -1046h507l24 186h222l-18 -410h-1091z" />
    <glyph glyph-name="bracketleft" unicode="[" horiz-adv-x="596" 
d="M139 -336v2027h433v-216h-141v-1595h141v-216h-433z" />
    <glyph glyph-name="backslash" unicode="\" horiz-adv-x="854" 
d="M620 -125l-608 1581h288l608 -1581h-288z" />
    <glyph glyph-name="bracketright" unicode="]" horiz-adv-x="579" 
d="M21 -336v216h143v1595h-143v216h434v-2027h-434z" />
    <glyph glyph-name="asciicircum" unicode="^" horiz-adv-x="884" 
d="M45 729l299 727h212l299 -727h-231l-165 413l-8 34h-6l-7 -34l-162 -413h-231z" />
    <glyph glyph-name="underscore" unicode="_" horiz-adv-x="1094" 
d="M92 -186v186h910v-186h-910z" />
    <glyph glyph-name="grave" unicode="`" horiz-adv-x="590" 
d="M550 1287h-8h-226l-276 267l2 6h309z" />
    <glyph glyph-name="a" unicode="a" horiz-adv-x="1154" 
d="M425 -21q-161 0 -256 86.5t-95 235.5q0 102 55.5 179t164 121t267.5 44h143v80q0 78 -45.5 126.5t-136.5 48.5q-47 0 -84.5 -11.5t-67.5 -32.5l-23 -143h-210l-4 281q85 48 184 78t221 30q212 0 335 -98.5t123 -281.5v-446q0 -22 0.5 -43.5t3.5 -41.5l113 -16v-175h-362
q-11 28 -22 60t-16 64q-52 -66 -122.5 -105.5t-165.5 -39.5zM503 195q61 0 116 27.5t85 72.5v171h-144q-96 0 -145.5 -44t-49.5 -106q0 -58 36.5 -89.5t101.5 -31.5z" />
    <glyph glyph-name="b" unicode="b" horiz-adv-x="1181" 
d="M696 -21q-100 0 -171 39.5t-119 114.5l-21 -133h-252v1354l-155 30v176h446v-593q47 65 115.5 100t159.5 35q131 0 222.5 -70.5t139.5 -198.5t48 -301v-21q0 -161 -48 -280.5t-140 -185.5t-225 -66zM608 206q112 0 161 79.5t49 225.5v21q0 106 -21.5 182.5t-67 118.5
t-118.5 42q-66 0 -113 -31t-74 -84v-452q30 -50 76.5 -76t107.5 -26z" />
    <glyph glyph-name="c" unicode="c" horiz-adv-x="1082" 
d="M572 -21q-156 0 -269.5 70t-174.5 193.5t-61 282.5v30q0 160 62 283t175 193.5t266 70.5q146 0 251.5 -45.5t171.5 -105.5l-2 -310h-220l-39 193q-24 24 -61 39t-75 15q-80 0 -132.5 -40t-78.5 -114t-26 -179v-30q0 -111 29 -182.5t77.5 -105.5t108.5 -34
q77 0 123.5 40.5t64.5 114.5h249l3 -6q-17 -115 -67.5 -199t-142 -129t-232.5 -45z" />
    <glyph glyph-name="d" unicode="d" horiz-adv-x="1212" 
d="M479 -21q-129 0 -221.5 66.5t-141.5 186t-49 279.5v21q0 171 49.5 299t141.5 199.5t220 71.5q89 0 156 -35.5t116 -100.5v388l-156 30v176h156h292v-1355l140 -30v-175h-393l-22 132q-51 -75 -121.5 -114t-166.5 -39zM566 206q61 0 107 26t77 75v459q-30 52 -76 80.5
t-106 28.5q-73 0 -119.5 -43.5t-68 -120.5t-21.5 -179v-21q0 -142 48 -223.5t159 -81.5z" />
    <glyph glyph-name="e" unicode="e" horiz-adv-x="1078" 
d="M581 -21q-155 0 -271 68.5t-179.5 188.5t-63.5 274v40q0 161 60 285.5t169.5 196t258.5 70.5q147 0 247 -58t152 -167t52 -264v-159h-636l-2 -6q6 -71 35.5 -126.5t83.5 -87t131 -31.5q80 0 149.5 20.5t135.5 60.5l79 -180q-67 -54 -168.5 -89.5t-232.5 -35.5zM372 647
h361v26q0 66 -17.5 113.5t-56 73.5t-99.5 26q-58 0 -98 -30.5t-62.5 -83.5t-30.5 -120z" />
    <glyph glyph-name="f" unicode="f" horiz-adv-x="799" 
d="M79 0v175l141 30v672h-161v205h161v120q0 182 104.5 280.5t292.5 98.5q47 0 99 -7.5t89 -17.5l-25 -217q-24 7 -55 10.5t-63 3.5q-76 0 -113 -39t-37 -112v-120h245v-205h-245v-672l191 -30v-175h-624z" />
    <glyph glyph-name="g" unicode="g" horiz-adv-x="1198" 
d="M540 -437q-82 0 -184 21t-180 60l54 208q70 -30 148.5 -47.5t146.5 -17.5q117 0 171.5 65t54.5 181v71q-48 -61 -113 -93t-149 -32q-132 0 -227 66.5t-145 186.5t-50 279v21q0 171 50 299t143 199.5t223 71.5q97 0 167 -40.5t119 -115.5l21 136h254v-1050
q0 -143 -60.5 -248t-173.5 -163t-270 -58zM571 206q62 0 107 24.5t73 71.5v470q-28 49 -73.5 76t-105.5 27q-75 0 -122 -43.5t-69 -120t-22 -179.5v-21q0 -142 49 -223.5t163 -81.5zM1007 871l-127 211h291v-176z" />
    <glyph glyph-name="h" unicode="h" horiz-adv-x="1302" 
d="M47 0v175l141 30v1149l-156 30v176h447v-616q51 75 126.5 116.5t171.5 41.5q163 0 258.5 -108.5t95.5 -335.5v-453l140 -30v-175h-558v175l126 30v455q0 117 -44 166t-129 49q-59 0 -107.5 -24.5t-79.5 -71.5v-574l126 -30v-175h-558z" />
    <glyph glyph-name="i" unicode="i" horiz-adv-x="661" 
d="M54 0v175l141 30v671l-156 30v176h448v-877l140 -30v-175h-573zM185 1311v249h302v-249h-302z" />
    <glyph glyph-name="j" unicode="j" horiz-adv-x="600" 
d="M105 -437q-41 0 -74.5 4t-69.5 13l15 221q22 -6 46.5 -9.5t51.5 -3.5q57 0 89 45t32 127v916l-156 30v176h447v-1122q0 -191 -100.5 -294t-280.5 -103zM181 1311v249h302v-249h-302z" />
    <glyph glyph-name="k" unicode="k" horiz-adv-x="1316" 
d="M47 0v175l141 30v1149l-156 30v176h447v-1355l126 -30v-175h-558zM736 0v166l82 19l-2 4l-214 291l186 191l355 -465l134 -31v-175h-541zM448 296l-140 163l470 430l2 3l-111 16v174h563v-176l-140 -35z" />
    <glyph glyph-name="l" unicode="l" horiz-adv-x="653" 
d="M47 0v175l141 30v1149l-156 30v176h448v-1355l141 -30v-175h-574z" />
    <glyph glyph-name="m" unicode="m" horiz-adv-x="1917" 
d="M52 0v175l141 30v671l-156 30v176h427l12 -143q52 78 130.5 120.5t181.5 42.5q104 0 178.5 -46t111.5 -139q50 87 130 136t188 49q160 0 252.5 -109t92.5 -332v-456l141 -30v-175h-559v175l126 30v457q0 120 -39.5 166.5t-114.5 46.5q-68 0 -115 -38.5t-68 -101.5v-530
l118 -30v-175h-527v175l118 30v457q0 117 -39.5 165t-116.5 48q-62 0 -107 -25t-74 -72v-573l126 -30v-175h-558z" />
    <glyph glyph-name="n" unicode="n" horiz-adv-x="1307" 
d="M52 0v175l140 30v671l-155 30v176h427l13 -155q54 83 133.5 129t181.5 46q161 0 252 -103t91 -323v-471l140 -30v-175h-558v175l125 30v470q0 109 -43 154.5t-128 45.5q-63 0 -109.5 -26.5t-77.5 -75.5v-568l118 -30v-175h-550z" />
    <glyph glyph-name="o" unicode="o" horiz-adv-x="1155" 
d="M579 -21q-160 0 -275 70t-176 194.5t-61 286.5v21q0 161 61 285.5t175.5 195t273.5 70.5q161 0 275 -70.5t175 -194.5t61 -286v-21q0 -162 -61 -286.5t-175 -194.5t-273 -70zM579 203q76 0 124 41t71 114.5t23 171.5v21q0 96 -23 169.5t-71.5 115t-125.5 41.5
q-75 0 -124 -41.5t-71.5 -115t-22.5 -169.5v-21q0 -98 22.5 -172t71.5 -114.5t126 -40.5z" />
    <glyph glyph-name="p" unicode="p" horiz-adv-x="1240" 
d="M56 -416v176l141 30v1086l-156 30v176h424l14 -126q48 70 116 108t162 38q131 0 224 -71.5t142.5 -199.5t49.5 -299v-21q0 -160 -49.5 -279.5t-143 -186t-225.5 -66.5q-87 0 -153.5 31.5t-113.5 92.5v-313l141 -30v-176h-573zM668 203q112 0 162.5 83t50.5 225v21
q0 103 -23 179.5t-70.5 120t-121.5 43.5q-60 0 -105.5 -27t-72.5 -77v-474q27 -46 72.5 -70t107.5 -24z" />
    <glyph glyph-name="q" unicode="q" horiz-adv-x="1156" 
d="M576 -416v172l171 34v310q-49 -60 -113.5 -90.5t-150.5 -30.5q-131 0 -224 66.5t-142.5 186t-49.5 279.5v21q0 171 49.5 299t142.5 199.5t223 71.5q95 0 163.5 -39t117.5 -111l22 130h254v-1292l131 -29v-177h-594zM568 203q59 0 104.5 23.5t74.5 69.5v481
q-29 48 -73.5 74t-103.5 26q-74 0 -121 -43t-68.5 -121t-21.5 -181v-21q0 -143 48 -225.5t161 -82.5z" />
    <glyph glyph-name="r" unicode="r" horiz-adv-x="886" 
d="M85 0v175l140 30v671l-155 30v176h427l11 -134l2 -24q40 88 99 133t141 45q26 0 57 -4.5t55 -11.5l-31 -269l-145 8q-62 3 -100.5 -21t-68.5 -69v-530l140 -30v-175h-572z" />
    <glyph glyph-name="s" unicode="s" horiz-adv-x="1034" 
d="M527 -21q-121 0 -225.5 23t-200.5 66l-3 306h203l39 -156q34 -17 74.5 -27t92.5 -10q98 0 138 32t40 80q0 45 -42.5 79.5t-169.5 60.5q-192 40 -283 124t-91 215q0 90 45.5 164t139 119t239.5 45q122 0 223.5 -23.5t170.5 -61.5l3 -296h-202l-31 142q-27 20 -63.5 30
t-82.5 10q-77 0 -118 -31t-41 -80q0 -28 14.5 -52t57.5 -45t125 -40q201 -46 293 -122.5t92 -214.5q0 -151 -109.5 -244t-327.5 -93z" />
    <glyph glyph-name="t" unicode="t" horiz-adv-x="735" 
d="M488 -21q-151 0 -232.5 83t-81.5 263v552h-149v205h149v265h291v-265h199v-205h-199v-551q0 -63 26.5 -90t72.5 -27q24 0 52 3.5t48 7.5l25 -211q-45 -13 -97.5 -21.5t-103.5 -8.5z" />
    <glyph glyph-name="u" unicode="u" horiz-adv-x="1275" 
d="M522 -21q-171 0 -268.5 108.5t-97.5 337.5v451l-119 30v176h119h292v-659q0 -116 40.5 -166.5t122.5 -50.5q65 0 115 25.5t82 72.5v572l-129 30v176h129h292v-877l130 -30v-175h-386l-20 137q-51 -76 -128 -117t-174 -41z" />
    <glyph glyph-name="v" unicode="v" horiz-adv-x="1247" 
d="M466 0l-327 888l-117 18v176h525v-175l-114 -20l163 -491l25 -84h6l28 84l179 490l-133 21v175h524v-176l-120 -20l-342 -886h-297z" />
    <glyph glyph-name="w" unicode="w" horiz-adv-x="1822" 
d="M417 0l-252 882l-132 24v176h523v-175l-114 -22l100 -421l20 -83h6l27 83l222 618h196l215 -626l28 -88h6l26 88l118 428l-126 23v175h512v-176l-126 -24l-275 -882h-246l-198 536l-35 119h-6l-35 -120l-195 -535h-259z" />
    <glyph glyph-name="x" unicode="x" horiz-adv-x="1319" 
d="M30 0v175l139 18l310 349l-293 347l-131 17v176h536v-168l-84 -13l157 -206l157 206l-93 13v168h517v-176l-121 -17l-277 -335l309 -361l133 -18v-175h-555v167l94 13l-167 207l-163 -208l92 -12v-167h-560z" />
    <glyph glyph-name="y" unicode="y" horiz-adv-x="1285" 
d="M363 -437q-38 0 -80.5 6.5t-80.5 17.5l33 214q19 -4 42 -6t40 -2q63 0 109 33t67 95l24 67l-362 899l-133 19v176h574v-176l-132 -20l170 -477l21 -59h6l201 538l-129 18v176h535v-176l-122 -17l-413 -1050q-30 -75 -76.5 -137.5t-118 -100.5t-175.5 -38z" />
    <glyph glyph-name="z" unicode="z" horiz-adv-x="1107" 
d="M88 0v172l563 706h-292l-33 -185h-214v389h889v-187l-531 -686h306l43 199h205v-408h-936z" />
    <glyph glyph-name="braceleft" unicode="{" horiz-adv-x="673" 
d="M577 -360q-195 55 -277.5 175t-82.5 291v203q0 99 -43.5 154t-134.5 55v201q91 0 134.5 54.5t43.5 155.5v203q0 171 82.5 290.5t277.5 174.5l56 -157q-86 -31 -120.5 -110.5t-34.5 -197.5v-203q0 -104 -45 -184.5t-135 -125.5q90 -47 135 -127.5t45 -182.5v-203
q0 -118 34.5 -197.5t120.5 -110.5z" />
    <glyph glyph-name="bar" unicode="|" horiz-adv-x="428" 
d="M132 -270v1726h175v-1726h-175z" />
    <glyph glyph-name="braceright" unicode="}" horiz-adv-x="679" 
d="M95 -360l-56 158q84 31 119 110.5t35 197.5v203q0 104 45.5 184t139.5 125q-94 45 -139.5 125.5t-45.5 185.5v203q0 118 -35 197.5t-119 110.5l56 157q194 -55 277 -174.5t83 -290.5v-203q0 -101 43 -155.5t134 -54.5v-201q-91 0 -134 -55t-43 -154v-203q0 -171 -83 -291
t-277 -175z" />
    <glyph glyph-name="asciitilde" unicode="~" horiz-adv-x="1323" 
d="M896 378q-80 0 -151.5 31.5t-149.5 101.5q-50 44 -87.5 64t-78.5 20q-55 0 -91.5 -51t-36.5 -122l-201 26q0 108 39.5 193t110 134.5t162.5 49.5q81 0 156.5 -33.5t150.5 -99.5q49 -45 86.5 -64.5t78.5 -19.5q53 0 90.5 52t37.5 125l202 -27q0 -107 -40.5 -193
t-112 -136.5t-165.5 -50.5z" />
    <glyph glyph-name="uni00A0" unicode="&#xa0;" horiz-adv-x="502" 
 />
    <glyph glyph-name="exclamdown" unicode="&#xa1;" horiz-adv-x="507" 
d="M96 580v-954h292v954h-292zM96 1082v-256h292v256h-292z" />
    <glyph glyph-name="cent" unicode="&#xa2;" horiz-adv-x="1092" 
d="M467 -245v235q-125 24 -211.5 98t-131 186t-44.5 251v30q0 136 45 246.5t131 186t211 101.5v229h200v-219q107 -10 193 -47.5t146 -98.5l4 -289h-237l-48 169q-22 19 -54.5 31.5t-79.5 12.5q-78 0 -126.5 -41t-70.5 -113.5t-22 -167.5v-30q0 -97 20 -169.5t66.5 -112.5
t125.5 -40q52 0 90.5 21t60 58t21.5 88h265l3 -6q2 -96 -43.5 -176t-127 -133t-186.5 -69v-231h-200z" />
    <glyph glyph-name="sterling" unicode="&#xa3;" horiz-adv-x="1177" 
d="M110 0v224h10q34 8 57.5 49t35 99.5t11.5 117.5l-4 98h-163v225h155l-8 214q0 210 120.5 330t322.5 120q215 0 333.5 -111.5t114.5 -294.5l-2 -6h-285q0 96 -46 141.5t-116 45.5q-71 0 -111 -59t-40 -166l10 -214h356v-225h-346l4 -85q0 -78 -26 -150t-76 -129h465
l12 144h223v-368h-1007z" />
    <glyph glyph-name="currency" unicode="&#xa4;" horiz-adv-x="1432" 
d="M1206 -27l-132 134q-77 -61 -169.5 -94t-192.5 -33q-101 0 -193 32.5t-167 93.5l-129 -132l-141 144l135 137q-49 76 -74.5 165.5t-25.5 187.5q0 101 28 193.5t81 171.5l-144 147l141 144l142 -145q74 55 162 85t185 30q96 0 185 -30.5t164 -86.5l145 148l142 -145
l-148 -151q51 -78 79 -169.5t28 -191.5q0 -97 -25.5 -185.5t-72.5 -163.5l139 -141zM712 169q85 0 159 33.5t130 93.5t88 140t32 172t-32 171t-88 139t-130 93.5t-159 33.5t-159.5 -33.5t-131 -93.5t-88 -139t-31.5 -171t31.5 -171.5t88 -139.5t131 -94t159.5 -34z" />
    <glyph glyph-name="yen" unicode="&#xa5;" horiz-adv-x="1401" 
d="M400 0v175l155 30v91h-339v164h339v117h-339v165h267l-276 516l-166 22v176h536v-176l-68 -13l180 -389l13 -29h6l10 22l183 396l-68 13v176h536v-176l-166 -22l-276 -516h244v-165h-324v-117h324v-164h-324v-91l140 -30v-175h-587z" />
    <glyph glyph-name="brokenbar" unicode="&#xa6;" horiz-adv-x="513" 
d="M134 -270v795h261v-795h-261zM134 698v758h261v-758h-261z" />
    <glyph glyph-name="section" unicode="&#xa7;" horiz-adv-x="1243" 
d="M628 -461q-155 0 -277.5 43.5t-192.5 136t-67 237.5l2 6l282 1q0 -70 33.5 -114t90.5 -64t129 -20q107 0 166.5 41.5t59.5 108.5q0 45 -25.5 76.5t-88.5 60t-176 61.5q-163 43 -269 97.5t-158 132.5t-52 193q0 88 42 157t122 114q-69 50 -103.5 120.5t-34.5 168.5
q0 115 64 200.5t181 133t275 47.5q244 0 381 -111t132 -311l-2 -6h-282q0 59 -27 104.5t-78.5 72t-123.5 26.5q-114 0 -170.5 -43.5t-56.5 -110.5q0 -50 23 -82.5t85 -59t179 -58.5q165 -42 271.5 -97t158 -133t51.5 -193q0 -91 -42 -159t-121 -111q68 -51 102.5 -121.5
t34.5 -167.5q0 -177 -140.5 -277t-377.5 -100zM802 306q39 22 60.5 59t21.5 85t-26 82.5t-90 65t-177 65.5q-40 10 -74 21t-65 22q-38 -22 -56.5 -59t-18.5 -85q0 -54 22.5 -89t84.5 -63t180 -63q34 -10 68.5 -20t69.5 -21z" />
    <glyph glyph-name="dieresis" unicode="&#xa8;" horiz-adv-x="812" 
d="M491 1311v249h281v-249h-281zM40 1311v249h281v-249h-281z" />
    <glyph glyph-name="copyright" unicode="&#xa9;" horiz-adv-x="1566" 
d="M784 -21q-148 0 -277 57.5t-226 160t-152 238.5t-55 294t55 293.5t152 237.5t226 159t277 57q147 0 276 -57t226.5 -159t152.5 -237.5t55 -293.5t-55 -294t-153 -238.5t-226.5 -160t-275.5 -57.5zM784 104q122 0 228.5 47.5t187 133t126 199t45.5 245.5t-45.5 245
t-126.5 197.5t-187 132t-228 47.5q-123 0 -229.5 -47t-187.5 -132t-126 -198t-45 -245t45.5 -245.5t126 -199t187.5 -133t229 -47.5zM770 282q-160 0 -254.5 106t-94.5 281v119q0 173 94.5 280t254.5 107q157 0 245.5 -79.5t84.5 -228.5l-2 -6h-148q0 94 -45 136.5
t-135 42.5q-94 0 -144 -69t-50 -182v-120q0 -115 50 -183.5t144 -68.5q90 0 134.5 42t44.5 137h148l2 -6q4 -151 -84 -229.5t-245 -78.5z" />
    <glyph glyph-name="ordfeminine" unicode="&#xaa;" horiz-adv-x="867" 
d="M343 692q-119 0 -184 61t-65 167q0 111 84.5 171t246.5 60h137v51q0 62 -29.5 94.5t-86.5 32.5q-66 0 -102 -26t-36 -73l-165 13l-1 6q-6 98 79.5 163t224.5 65q134 0 212.5 -71t78.5 -205v-314q0 -51 6 -95t20 -86h-177q-8 21 -13 44.5t-8 49.5q-33 -47 -88.5 -77.5
t-133.5 -30.5zM386 836q34 0 70.5 14t65.5 36t40 45v103h-136q-74 0 -115.5 -32t-41.5 -78q0 -43 29 -65.5t88 -22.5z" />
    <glyph glyph-name="guillemotleft" unicode="&#xab;" horiz-adv-x="953" 
d="M284 116l-280 390v19l280 390h187l-240 -400l240 -399h-187zM679 116l-280 390v19l280 390h187l-240 -400l240 -399h-187z" />
    <glyph glyph-name="logicalnot" unicode="&#xac;" horiz-adv-x="1098" 
d="M749 374v260h-635v171h835v-431h-200z" />
    <glyph glyph-name="uni00AD" unicode="&#xad;" horiz-adv-x="815" 
d="M131 510v225h564v-225h-564z" />
    <glyph glyph-name="registered" unicode="&#xae;" horiz-adv-x="1566" 
d="M784 -21q-148 0 -277 57.5t-226 160t-152 238.5t-55 294t55 293.5t152 237.5t226 159t277 57q147 0 276 -57t226.5 -159t152.5 -237.5t55 -293.5t-55 -294t-153 -238.5t-226.5 -160t-275.5 -57.5zM784 104q122 0 228.5 47.5t187 133t126 199t45.5 245.5t-45.5 245
t-126.5 197.5t-187 132t-228 47.5q-123 0 -229.5 -47t-187.5 -132t-126 -198t-45 -245t45.5 -245.5t126 -199t187.5 -133t229 -47.5zM489 316v850h281q151 0 238 -68t87 -194q0 -58 -29 -101.5t-85 -74.5q58 -30 84.5 -84.5t26.5 -128.5v-56q0 -41 3.5 -73.5t13.5 -53.5v-16
h-155q-9 21 -11 61.5t-2 82.5v54q0 71 -33.5 105t-109.5 34h-158v-337h-151zM640 787h136q71 0 120 30t49 86q0 72 -39 101t-136 29h-130v-246z" />
    <glyph glyph-name="macron" unicode="&#xaf;" horiz-adv-x="811" 
d="M40 1312v176h731v-176h-731z" />
    <glyph glyph-name="degree" unicode="&#xb0;" horiz-adv-x="745" 
d="M378 932q-75 0 -137 36.5t-98.5 98t-36.5 136.5t37 137t99 99.5t136 37.5q73 0 134 -37.5t97.5 -99.5t36.5 -137q0 -76 -36 -137t-97 -97.5t-135 -36.5zM378 1079q52 0 87 35t35 89t-35.5 91t-86.5 37q-52 0 -88.5 -37t-36.5 -91q0 -53 36.5 -88.5t88.5 -35.5z" />
    <glyph glyph-name="plusminus" unicode="&#xb1;" horiz-adv-x="1040" 
d="M399 332v383h-333v232h333v363h256v-363h327v-232h-327v-383h-256zM119 1v228h834v-228h-834z" />
    <glyph glyph-name="uni00B2" unicode="&#xb2;" horiz-adv-x="823" 
d="M729 667v155h-346l-2 6l109 93q82 68 133 117.5t74.5 94t23.5 98.5q0 118 -78.5 183t-222.5 65q-98 0 -171.5 -34.5t-112.5 -92.5t-35 -129l2 -6h201q0 47 28 77t83 30q50 0 73 -26.5t23 -65.5q0 -41 -17.5 -74.5t-77.5 -83.5l-310 -252v-155h623z" />
    <glyph glyph-name="uni00B3" unicode="&#xb3;" horiz-adv-x="833" 
d="M401 1139h-112v-133h112q66 0 101 -27t35 -77q0 -44 -34 -68t-90 -24q-60 0 -91.5 23.5t-31.5 65.5h-200l-2 -6q-4 -75 38 -128.5t117.5 -81.5t171.5 -28q153 0 242.5 62t89.5 174q0 138 -146 187q61 25 96.5 70.5t35.5 100.5q0 110 -88.5 169.5t-239.5 59.5
q-134 0 -222 -61.5t-82 -162.5l2 -6h200q0 31 28 53t79 22q56 0 84 -25.5t28 -63.5q0 -95 -121 -95z" />
    <glyph glyph-name="acute" unicode="&#xb4;" horiz-adv-x="590" 
d="M40 1287l199 273h309l2 -6l-276 -267h-226h-8z" />
    <glyph glyph-name="uni00B5" unicode="&#xb5;" horiz-adv-x="1347" 
d="M211 -416v1292l-156 30v176h156h291v-620q0 -149 44.5 -202.5t134.5 -53.5q76 0 126 27.5t78 80.5v562l-156 30v176h447v-877l141 -30v-175h-412l-6 88q-41 -54 -98 -81.5t-130 -27.5q-49 0 -91.5 10.5t-77.5 32.5v-438h-291z" />
    <glyph glyph-name="paragraph" unicode="&#xb6;" horiz-adv-x="1127" 
d="M473 0v175l156 30v315h-83q-155 0 -265 59t-168.5 164.5t-58.5 244.5q0 138 58 243.5t168.5 165t265.5 59.5h530v-176l-155 -30v-1045l155 -30v-175h-603z" />
    <glyph glyph-name="periodcentered" unicode="&#xb7;" horiz-adv-x="553" 
d="M146 571v256h291v-256h-291z" />
    <glyph glyph-name="cedilla" unicode="&#xb8;" horiz-adv-x="500" 
d="M62 -459l-7 160q60 0 95.5 19.5t35.5 59.5q0 43 -35 59.5t-111 20.5l34 158h215l-13 -74q67 -11 112 -50.5t45 -117.5q0 -107 -97 -171t-274 -64z" />
    <glyph glyph-name="uni00B9" unicode="&#xb9;" horiz-adv-x="536" 
d="M439 665v812l-337 -23v-159h127v-630h210z" />
    <glyph glyph-name="ordmasculine" unicode="&#xba;" horiz-adv-x="914" 
d="M457 691q-159 0 -253.5 92.5t-94.5 241.5v117q0 148 94.5 241.5t251.5 93.5q158 0 252.5 -93.5t94.5 -241.5v-117q0 -149 -93.5 -241.5t-251.5 -92.5zM457 837q82 0 126 51.5t44 136.5v117q0 83 -44.5 135t-127.5 52q-84 0 -127.5 -52t-43.5 -135v-117q0 -85 44 -136.5
t129 -51.5z" />
    <glyph glyph-name="guillemotright" unicode="&#xbb;" horiz-adv-x="973" 
d="M64 151l239 399l-239 400h187l280 -390v-19l-280 -390h-187zM470 151l239 399l-239 400h187l280 -390v-19l-280 -390h-187z" />
    <glyph glyph-name="onequarter" unicode="&#xbc;" horiz-adv-x="1413" 
d="M244 664v630h-127v159l337 23v-812h-210zM382 117l-142 75l711 1138l142 -75zM1127 0v139h-410l-13 126l423 536h211v-505h101v-157h-101v-139h-211zM919 296h208v257l-6 2l-13 -20z" />
    <glyph glyph-name="onehalf" unicode="&#xbd;" horiz-adv-x="1457" 
d="M380 117l-142 75l711 1138l142 -75zM229 664v630h-127v159l337 23v-812h-210zM829 0v155l310 252q60 50 77.5 85t17.5 68q0 43 -23.5 70t-72.5 27q-55 0 -83 -30t-28 -77h-201l-2 6q-4 71 35 129t112.5 92.5t171.5 34.5q144 0 222.5 -64t78.5 -178q0 -57 -23.5 -103
t-74 -95.5t-133.5 -117.5l-109 -93l2 -6h346v-155h-623z" />
    <glyph glyph-name="threequarters" unicode="&#xbe;" horiz-adv-x="1635" 
d="M598 117l-142 75l711 1138l142 -75zM1314 0v139h-410l-13 126l423 536h211v-505h101v-157h-101v-139h-211zM1106 296h208v257l-6 2l-13 -20zM406 656q-97 0 -172 28t-117 81.5t-38 128.5l2 6h200q0 -42 31.5 -65.5t88.5 -23.5q60 0 93.5 24t33.5 67q0 51 -35 78t-101 27
h-112v133h112q121 0 121 93q0 39 -28 65t-84 26q-51 0 -79 -22t-28 -53h-200l-2 6q-6 101 83 162.5t229 61.5q145 0 232.5 -58.5t87.5 -163.5q0 -60 -35.5 -106.5t-96.5 -71.5q146 -49 146 -189q0 -111 -89 -172.5t-243 -61.5z" />
    <glyph glyph-name="questiondown" unicode="&#xbf;" horiz-adv-x="945" 
d="M695 669q0 -73 -9 -122.5t-29.5 -87.5t-58.5 -75t-98 -84q-52 -42 -86 -87t-52 -93t-18 -99q0 -86 47.5 -134.5t133.5 -48.5q72 0 123.5 40t52.5 120h283l3 -6q2 -122 -56.5 -208.5t-163 -132t-241.5 -45.5q-223 0 -348.5 109.5t-125.5 297.5q0 87 33.5 161t92 140
t135.5 131q38 32 57.5 61.5t26 68t6.5 94.5h292zM695 1083v-256h-292v256h292z" />
    <glyph glyph-name="Agrave" unicode="&#xc0;" horiz-adv-x="1512" 
d="M41 0v175l104 15l463 1266h299l460 -1266l104 -15v-175h-496v175l101 18l-64 200h-512l-64 -200l101 -18v-175h-496zM569 608h374l-170 499l-14 44h-6l-15 -47zM933 1569h-8h-226l-276 267l2 6h309z" />
    <glyph glyph-name="Aacute" unicode="&#xc1;" horiz-adv-x="1512" 
d="M41 0v175l104 15l463 1266h299l460 -1266l104 -15v-175h-496v175l101 18l-64 200h-512l-64 -200l101 -18v-175h-496zM569 608h374l-170 499l-14 44h-6l-15 -47zM583 1569l199 273h309l2 -6l-276 -267h-226h-8z" />
    <glyph glyph-name="Acircumflex" unicode="&#xc2;" horiz-adv-x="1512" 
d="M41 0v175l104 15l463 1266h299l460 -1266l104 -15v-175h-496v175l101 18l-64 200h-512l-64 -200l101 -18v-175h-496zM569 608h374l-170 499l-14 44h-6l-15 -47zM396 1573v26l255 243h215l253 -246v-23h-228l-133 144l-137 -144h-225z" />
    <glyph glyph-name="Atilde" unicode="&#xc3;" horiz-adv-x="1512" 
d="M41 0v175l104 15l463 1266h299l460 -1266l104 -15v-175h-496v175l101 18l-64 200h-512l-64 -200l101 -18v-175h-496zM569 608h374l-170 499l-14 44h-6l-15 -47zM534 1565l-151 40q0 67 31.5 124t83.5 92t113 35q48 0 100 -24t99.5 -48.5t80.5 -24.5q41 1 65.5 31.5
t24.5 77.5l151 -42q0 -69 -31.5 -125.5t-83.5 -90t-114 -33.5q-52 0 -104 24t-97 48.5t-79 24.5q-41 0 -65 -32t-24 -77z" />
    <glyph glyph-name="Adieresis" unicode="&#xc4;" horiz-adv-x="1512" 
d="M41 0v175l104 15l463 1266h299l460 -1266l104 -15v-175h-496v175l101 18l-64 200h-512l-64 -200l101 -18v-175h-496zM569 608h374l-170 499l-14 44h-6l-15 -47zM842 1593v249h281v-249h-281zM391 1593v249h281v-249h-281z" />
    <glyph glyph-name="Aring" unicode="&#xc5;" horiz-adv-x="1512" 
d="M41 0v175l104 15l463 1266h299l460 -1266l104 -15v-175h-496v175l101 18l-64 200h-512l-64 -200l101 -18v-175h-496zM569 608h374l-170 499l-14 44h-6l-15 -47zM760 1510q-100 0 -167.5 60t-67.5 154q0 93 68 156t167 63q97 0 163.5 -63t66.5 -156q0 -94 -66.5 -154
t-163.5 -60zM760 1627q41 0 66.5 27t25.5 70q0 44 -25.5 71.5t-66.5 27.5q-42 0 -69.5 -27.5t-27.5 -71.5q0 -43 27.5 -70t69.5 -27z" />
    <glyph glyph-name="AE" unicode="&#xc6;" horiz-adv-x="2092" 
d="M66 0v175l139 20l700 1261h1036v-369h-224l-12 141h-379l16 -366h516v-227h-507l18 -408h398l13 141h223v-368h-1075v175l150 28l-6 151h-448l-87 -165l86 -14v-175h-557zM740 582h322l-24 554l-5 1l-10 -21z" />
    <glyph glyph-name="Ccedilla" unicode="&#xc7;" horiz-adv-x="1321" 
d="M749 -21q-212 0 -369 88.5t-242.5 251t-85.5 384.5v49q0 212 82.5 375.5t235.5 256.5t364 93q148 0 277.5 -42t231.5 -128v-352h-217l-30 221q-33 24 -72 41t-84.5 26t-98.5 9q-124 0 -213 -61t-136.5 -172.5t-47.5 -264.5v-51q0 -153 50 -265t142 -173.5t218 -61.5
q63 0 126.5 14.5t115.5 37.5l30 205h217v-348q-85 -56 -212 -94.5t-282 -38.5zM600 -459l-7 160q60 0 95.5 19.5t35.5 59.5q0 43 -35 59.5t-111 20.5l34 158h215l-13 -74q67 -11 112 -50.5t45 -117.5q0 -107 -97 -171t-274 -64z" />
    <glyph glyph-name="Egrave" unicode="&#xc8;" horiz-adv-x="1308" 
d="M56 0v175l155 30v1045l-155 30v176h1130v-393h-224l-13 168h-446v-366h493v-225h-493v-416h470l13 174h222v-398h-1152zM829 1569h-8h-226l-276 267l2 6h309z" />
    <glyph glyph-name="Eacute" unicode="&#xc9;" horiz-adv-x="1308" 
d="M56 0v175l155 30v1045l-155 30v176h1130v-393h-224l-13 168h-446v-366h493v-225h-493v-416h470l13 174h222v-398h-1152zM480 1569l199 273h309l2 -6l-276 -267h-226h-8z" />
    <glyph glyph-name="Ecircumflex" unicode="&#xca;" horiz-adv-x="1308" 
d="M56 0v175l155 30v1045l-155 30v176h1130v-393h-224l-13 168h-446v-366h493v-225h-493v-416h470l13 174h222v-398h-1152zM292 1573v26l255 243h215l253 -246v-23h-228l-133 144l-137 -144h-225z" />
    <glyph glyph-name="Edieresis" unicode="&#xcb;" horiz-adv-x="1308" 
d="M56 0v175l155 30v1045l-155 30v176h1130v-393h-224l-13 168h-446v-366h493v-225h-493v-416h470l13 174h222v-398h-1152zM739 1593v249h281v-249h-281zM288 1593v249h281v-249h-281z" />
    <glyph glyph-name="Igrave" unicode="&#xcc;" horiz-adv-x="714" 
d="M56 0v175l155 30v1045l-155 30v176h602v-176l-155 -30v-1045l155 -30v-175h-602zM532 1569h-8h-226l-276 267l2 6h309z" />
    <glyph glyph-name="Iacute" unicode="&#xcd;" horiz-adv-x="714" 
d="M56 0v175l155 30v1045l-155 30v176h602v-176l-155 -30v-1045l155 -30v-175h-602zM183 1569l199 273h309l2 -6l-276 -267h-226h-8z" />
    <glyph glyph-name="Icircumflex" unicode="&#xce;" horiz-adv-x="714" 
d="M56 0v175l155 30v1045l-155 30v176h602v-176l-155 -30v-1045l155 -30v-175h-602zM-4 1573v26l255 243h215l253 -246v-23h-228l-133 144l-137 -144h-225z" />
    <glyph glyph-name="Idieresis" unicode="&#xcf;" horiz-adv-x="714" 
d="M56 0v175l155 30v1045l-155 30v176h602v-176l-155 -30v-1045l155 -30v-175h-602zM442 1593v249h281v-249h-281zM-9 1593v249h281v-249h-281z" />
    <glyph glyph-name="Eth" unicode="&#xd0;" horiz-adv-x="1426" 
d="M56 0v175l157 33v1038l-157 34v176h157h482q195 0 344 -91.5t232.5 -253t83.5 -370.5v-27q0 -207 -82.5 -368.5t-230.5 -253.5t-343 -92h-643zM505 223h179q121 0 205 63.5t128.5 174.5t44.5 253v28q0 144 -44.5 254.5t-128.5 173t-205 62.5h-179v-1009zM45 660v155h659
v-155h-659z" />
    <glyph glyph-name="Ntilde" unicode="&#xd1;" horiz-adv-x="1604" 
d="M56 0v175l155 30v1045l-155 30v176h155h296l634 -1010l6 1v803l-186 30v176h447h156v-176l-156 -30v-1250h-282l-648 1000l-6 -1v-794l187 -30v-175h-603zM578 1565l-151 40q0 67 31.5 124t83.5 92t113 35q48 0 100 -24t99.5 -48.5t80.5 -24.5q41 1 65.5 31.5t24.5 77.5
l151 -42q0 -69 -31.5 -125.5t-83.5 -90t-114 -33.5q-52 0 -104 24t-97 48.5t-79 24.5q-41 0 -65 -32t-24 -77z" />
    <glyph glyph-name="Ograve" unicode="&#xd2;" horiz-adv-x="1446" 
d="M723 -21q-147 0 -268 55t-208.5 154.5t-134.5 234t-47 294.5v22q0 159 47 293.5t134 234.5t208 155t268 55q148 0 270 -55t210 -155t135.5 -234.5t47.5 -293.5v-22q0 -160 -47.5 -294.5t-135.5 -234t-209.5 -154.5t-269.5 -55zM723 206q124 0 206 64t123.5 179t41.5 268
v24q0 151 -42 265.5t-124.5 178.5t-205.5 64q-122 0 -203 -63.5t-121.5 -177.5t-40.5 -267v-24q0 -153 40.5 -268t122 -179t203.5 -64zM898 1569h-8h-226l-276 267l2 6h309z" />
    <glyph glyph-name="Oacute" unicode="&#xd3;" horiz-adv-x="1446" 
d="M723 -21q-147 0 -268 55t-208.5 154.5t-134.5 234t-47 294.5v22q0 159 47 293.5t134 234.5t208 155t268 55q148 0 270 -55t210 -155t135.5 -234.5t47.5 -293.5v-22q0 -160 -47.5 -294.5t-135.5 -234t-209.5 -154.5t-269.5 -55zM723 206q124 0 206 64t123.5 179t41.5 268
v24q0 151 -42 265.5t-124.5 178.5t-205.5 64q-122 0 -203 -63.5t-121.5 -177.5t-40.5 -267v-24q0 -153 40.5 -268t122 -179t203.5 -64zM549 1569l199 273h309l2 -6l-276 -267h-226h-8z" />
    <glyph glyph-name="Ocircumflex" unicode="&#xd4;" horiz-adv-x="1446" 
d="M723 -21q-147 0 -268 55t-208.5 154.5t-134.5 234t-47 294.5v22q0 159 47 293.5t134 234.5t208 155t268 55q148 0 270 -55t210 -155t135.5 -234.5t47.5 -293.5v-22q0 -160 -47.5 -294.5t-135.5 -234t-209.5 -154.5t-269.5 -55zM723 206q124 0 206 64t123.5 179t41.5 268
v24q0 151 -42 265.5t-124.5 178.5t-205.5 64q-122 0 -203 -63.5t-121.5 -177.5t-40.5 -267v-24q0 -153 40.5 -268t122 -179t203.5 -64zM362 1573v26l255 243h215l253 -246v-23h-228l-133 144l-137 -144h-225z" />
    <glyph glyph-name="Otilde" unicode="&#xd5;" horiz-adv-x="1446" 
d="M723 -21q-147 0 -268 55t-208.5 154.5t-134.5 234t-47 294.5v22q0 159 47 293.5t134 234.5t208 155t268 55q148 0 270 -55t210 -155t135.5 -234.5t47.5 -293.5v-22q0 -160 -47.5 -294.5t-135.5 -234t-209.5 -154.5t-269.5 -55zM723 206q124 0 206 64t123.5 179t41.5 268
v24q0 151 -42 265.5t-124.5 178.5t-205.5 64q-122 0 -203 -63.5t-121.5 -177.5t-40.5 -267v-24q0 -153 40.5 -268t122 -179t203.5 -64zM500 1565l-151 40q0 67 31.5 124t83.5 92t113 35q48 0 100 -24t99.5 -48.5t80.5 -24.5q41 1 65.5 31.5t24.5 77.5l151 -42
q0 -69 -31.5 -125.5t-83.5 -90t-114 -33.5q-52 0 -104 24t-97 48.5t-79 24.5q-41 0 -65 -32t-24 -77z" />
    <glyph glyph-name="Odieresis" unicode="&#xd6;" horiz-adv-x="1446" 
d="M723 -21q-147 0 -268 55t-208.5 154.5t-134.5 234t-47 294.5v22q0 159 47 293.5t134 234.5t208 155t268 55q148 0 270 -55t210 -155t135.5 -234.5t47.5 -293.5v-22q0 -160 -47.5 -294.5t-135.5 -234t-209.5 -154.5t-269.5 -55zM723 206q124 0 206 64t123.5 179t41.5 268
v24q0 151 -42 265.5t-124.5 178.5t-205.5 64q-122 0 -203 -63.5t-121.5 -177.5t-40.5 -267v-24q0 -153 40.5 -268t122 -179t203.5 -64zM808 1593v249h281v-249h-281zM357 1593v249h281v-249h-281z" />
    <glyph glyph-name="multiply" unicode="&#xd7;" horiz-adv-x="1068" 
d="M232 207l-171 164l309 315l-309 315l171 164l304 -310l304 310l171 -164l-309 -315l309 -315l-171 -164l-304 310z" />
    <glyph glyph-name="Oslash" unicode="&#xd8;" horiz-adv-x="1446" 
d="M723 -21q-147 0 -268 55t-208.5 154.5t-134.5 234t-47 294.5v22q0 159 47 293.5t134 234.5t208 155t268 55q148 0 270 -55t210 -155t135.5 -234.5t47.5 -293.5v-22q0 -160 -47.5 -294.5t-135.5 -234t-209.5 -154.5t-269.5 -55zM723 206q124 0 206 64t123.5 179t41.5 268
v24q0 151 -42 265.5t-124.5 178.5t-205.5 64q-122 0 -203 -63.5t-121.5 -177.5t-40.5 -267v-24q0 -153 40.5 -268t122 -179t203.5 -64zM164 -85l940 1613h179l-940 -1613h-179z" />
    <glyph glyph-name="Ugrave" unicode="&#xd9;" horiz-adv-x="1555" 
d="M776 -21q-173 0 -304.5 60t-204.5 174t-73 277v760l-155 30v176h603v-176l-156 -30v-760q0 -96 35 -160t100 -95.5t155 -31.5q92 0 157.5 31.5t100.5 95.5t35 160v760l-155 30v176h603v-176l-156 -30v-760q0 -163 -73.5 -277.5t-205 -174t-306.5 -59.5zM953 1569h-8h-226
l-276 267l2 6h309z" />
    <glyph glyph-name="Uacute" unicode="&#xda;" horiz-adv-x="1555" 
d="M776 -21q-173 0 -304.5 60t-204.5 174t-73 277v760l-155 30v176h603v-176l-156 -30v-760q0 -96 35 -160t100 -95.5t155 -31.5q92 0 157.5 31.5t100.5 95.5t35 160v760l-155 30v176h603v-176l-156 -30v-760q0 -163 -73.5 -277.5t-205 -174t-306.5 -59.5zM603 1569l199 273
h309l2 -6l-276 -267h-226h-8z" />
    <glyph glyph-name="Ucircumflex" unicode="&#xdb;" horiz-adv-x="1555" 
d="M776 -21q-173 0 -304.5 60t-204.5 174t-73 277v760l-155 30v176h603v-176l-156 -30v-760q0 -96 35 -160t100 -95.5t155 -31.5q92 0 157.5 31.5t100.5 95.5t35 160v760l-155 30v176h603v-176l-156 -30v-760q0 -163 -73.5 -277.5t-205 -174t-306.5 -59.5zM416 1573v26
l255 243h215l253 -246v-23h-228l-133 144l-137 -144h-225z" />
    <glyph glyph-name="Udieresis" unicode="&#xdc;" horiz-adv-x="1555" 
d="M776 -21q-173 0 -304.5 60t-204.5 174t-73 277v760l-155 30v176h603v-176l-156 -30v-760q0 -96 35 -160t100 -95.5t155 -31.5q92 0 157.5 31.5t100.5 95.5t35 160v760l-155 30v176h603v-176l-156 -30v-760q0 -163 -73.5 -277.5t-205 -174t-306.5 -59.5zM862 1593v249h281
v-249h-281zM411 1593v249h281v-249h-281z" />
    <glyph glyph-name="Yacute" unicode="&#xdd;" horiz-adv-x="1508" 
d="M452 0v175l156 30v294l-432 761l-140 20v176h581v-176l-119 -17l242 -465l22 -47l6 1l22 44l269 467l-160 17v176h570v-176l-144 -20l-426 -738v-317l156 -30v-175h-603zM580 1569l199 273h309l2 -6l-276 -267h-226h-8z" />
    <glyph glyph-name="Thorn" unicode="&#xde;" horiz-adv-x="1291" 
d="M67 0v175l156 30v1045l-156 30v176h448h156v-176l-156 -30v-89h208q250 0 389.5 -117.5t139.5 -306.5q0 -190 -139.5 -307t-389.5 -117h-208v-108l156 -30v-175h-604zM515 532h208q79 0 131.5 26.5t79 73t26.5 103.5q0 58 -26.5 105t-79 74.5t-131.5 27.5h-208v-410z" />
    <glyph glyph-name="germandbls" unicode="&#xdf;" horiz-adv-x="1321" 
d="M839 -21q-51 0 -102.5 6.5t-93.5 19.5t-67 30l54 223q36 -22 89.5 -38.5t113.5 -16.5q76 0 119 38t43 103q0 48 -30.5 93.5t-75 90.5t-89 93t-75 101.5t-30.5 115.5q0 46 16.5 92t38.5 93.5t38.5 94.5t16.5 93q0 63 -37.5 104.5t-104.5 41.5q-82 0 -129.5 -64t-47.5 -175
v-1118h-447v175l155 30v911q0 149 57.5 253t163 158t247.5 54q127 0 224 -44t152 -125.5t55 -194.5q0 -60 -16.5 -111t-37 -95t-37 -83t-16.5 -74q0 -46 30 -85.5t75 -80t90 -89t75 -110.5t30 -145q0 -120 -51.5 -201.5t-151 -122.5t-244.5 -41z" />
    <glyph glyph-name="agrave" unicode="&#xe0;" horiz-adv-x="1154" 
d="M425 -21q-161 0 -256 86.5t-95 235.5q0 102 55.5 179t164 121t267.5 44h143v80q0 78 -45.5 126.5t-136.5 48.5q-47 0 -84.5 -11.5t-67.5 -32.5l-23 -143h-210l-4 281q85 48 184 78t221 30q212 0 335 -98.5t123 -281.5v-446q0 -22 0.5 -43.5t3.5 -41.5l113 -16v-175h-362
q-11 28 -22 60t-16 64q-52 -66 -122.5 -105.5t-165.5 -39.5zM503 195q61 0 116 27.5t85 72.5v171h-144q-96 0 -145.5 -44t-49.5 -106q0 -58 36.5 -89.5t101.5 -31.5zM722 1287h-8h-226l-276 267l2 6h309z" />
    <glyph glyph-name="aacute" unicode="&#xe1;" horiz-adv-x="1154" 
d="M425 -21q-161 0 -256 86.5t-95 235.5q0 102 55.5 179t164 121t267.5 44h143v80q0 78 -45.5 126.5t-136.5 48.5q-47 0 -84.5 -11.5t-67.5 -32.5l-23 -143h-210l-4 281q85 48 184 78t221 30q212 0 335 -98.5t123 -281.5v-446q0 -22 0.5 -43.5t3.5 -41.5l113 -16v-175h-362
q-11 28 -22 60t-16 64q-52 -66 -122.5 -105.5t-165.5 -39.5zM503 195q61 0 116 27.5t85 72.5v171h-144q-96 0 -145.5 -44t-49.5 -106q0 -58 36.5 -89.5t101.5 -31.5zM372 1287l199 273h309l2 -6l-276 -267h-226h-8z" />
    <glyph glyph-name="acircumflex" unicode="&#xe2;" horiz-adv-x="1154" 
d="M425 -21q-161 0 -256 86.5t-95 235.5q0 102 55.5 179t164 121t267.5 44h143v80q0 78 -45.5 126.5t-136.5 48.5q-47 0 -84.5 -11.5t-67.5 -32.5l-23 -143h-210l-4 281q85 48 184 78t221 30q212 0 335 -98.5t123 -281.5v-446q0 -22 0.5 -43.5t3.5 -41.5l113 -16v-175h-362
q-11 28 -22 60t-16 64q-52 -66 -122.5 -105.5t-165.5 -39.5zM503 195q61 0 116 27.5t85 72.5v171h-144q-96 0 -145.5 -44t-49.5 -106q0 -58 36.5 -89.5t101.5 -31.5zM185 1291v26l255 243h215l253 -246v-23h-228l-133 144l-137 -144h-225z" />
    <glyph glyph-name="atilde" unicode="&#xe3;" horiz-adv-x="1154" 
d="M425 -21q-161 0 -256 86.5t-95 235.5q0 102 55.5 179t164 121t267.5 44h143v80q0 78 -45.5 126.5t-136.5 48.5q-47 0 -84.5 -11.5t-67.5 -32.5l-23 -143h-210l-4 281q85 48 184 78t221 30q212 0 335 -98.5t123 -281.5v-446q0 -22 0.5 -43.5t3.5 -41.5l113 -16v-175h-362
q-11 28 -22 60t-16 64q-52 -66 -122.5 -105.5t-165.5 -39.5zM503 195q61 0 116 27.5t85 72.5v171h-144q-96 0 -145.5 -44t-49.5 -106q0 -58 36.5 -89.5t101.5 -31.5zM323 1283l-151 40q0 67 31.5 124t83.5 92t113 35q48 0 100 -24t99.5 -48.5t80.5 -24.5q41 1 65.5 31.5
t24.5 77.5l151 -42q0 -69 -31.5 -125.5t-83.5 -90t-114 -33.5q-52 0 -104 24t-97 48.5t-79 24.5q-41 0 -65 -32t-24 -77z" />
    <glyph glyph-name="adieresis" unicode="&#xe4;" horiz-adv-x="1154" 
d="M425 -21q-161 0 -256 86.5t-95 235.5q0 102 55.5 179t164 121t267.5 44h143v80q0 78 -45.5 126.5t-136.5 48.5q-47 0 -84.5 -11.5t-67.5 -32.5l-23 -143h-210l-4 281q85 48 184 78t221 30q212 0 335 -98.5t123 -281.5v-446q0 -22 0.5 -43.5t3.5 -41.5l113 -16v-175h-362
q-11 28 -22 60t-16 64q-52 -66 -122.5 -105.5t-165.5 -39.5zM503 195q61 0 116 27.5t85 72.5v171h-144q-96 0 -145.5 -44t-49.5 -106q0 -58 36.5 -89.5t101.5 -31.5zM632 1311v249h281v-249h-281zM181 1311v249h281v-249h-281z" />
    <glyph glyph-name="aring" unicode="&#xe5;" horiz-adv-x="1154" 
d="M425 -21q-161 0 -256 86.5t-95 235.5q0 102 55.5 179t164 121t267.5 44h143v80q0 78 -45.5 126.5t-136.5 48.5q-47 0 -84.5 -11.5t-67.5 -32.5l-23 -143h-210l-4 281q85 48 184 78t221 30q212 0 335 -98.5t123 -281.5v-446q0 -22 0.5 -43.5t3.5 -41.5l113 -16v-175h-362
q-11 28 -22 60t-16 64q-52 -66 -122.5 -105.5t-165.5 -39.5zM503 195q61 0 116 27.5t85 72.5v171h-144q-96 0 -145.5 -44t-49.5 -106q0 -58 36.5 -89.5t101.5 -31.5zM549 1228q-100 0 -167.5 60t-67.5 154q0 93 68 156t167 63q97 0 163.5 -63t66.5 -156q0 -94 -66.5 -154
t-163.5 -60zM549 1345q41 0 66.5 27t25.5 70q0 44 -25.5 71.5t-66.5 27.5q-42 0 -69.5 -27.5t-27.5 -71.5q0 -43 27.5 -70t69.5 -27z" />
    <glyph glyph-name="ae" unicode="&#xe6;" horiz-adv-x="1720" 
d="M448 -21q-178 0 -276 87.5t-98 237.5q0 101 55.5 178.5t164 121t267.5 43.5h144v78q0 78 -46 126.5t-136 48.5q-47 0 -84.5 -11.5t-68.5 -32.5l-22 -143h-211l-3 281q85 48 184 78t221 30q110 0 195 -34t138 -104q43 46 92.5 76.5t107.5 46t122 15.5q142 0 243.5 -59.5
t156 -169.5t54.5 -261v-158h-650l-2 -6q4 -111 67 -178t189 -67q89 0 150.5 20.5t139.5 60.5l77 -184q-62 -48 -169 -84.5t-233 -36.5q-251 0 -390 165q-72 -80 -165 -122.5t-214 -42.5zM504 195q43 0 85 15.5t77 42.5t57 62q-10 39 -14 75t-4 71v7h-144q-96 0 -146 -43.5
t-50 -105.5q0 -55 36.5 -89.5t102.5 -34.5zM999 644h363v28q0 94 -45 149.5t-131 55.5q-55 0 -95.5 -28t-64.5 -79t-29 -121z" />
    <glyph glyph-name="ccedilla" unicode="&#xe7;" horiz-adv-x="1082" 
d="M572 -21q-156 0 -269.5 70t-174.5 193.5t-61 282.5v30q0 160 62 283t175 193.5t266 70.5q146 0 251.5 -45.5t171.5 -105.5l-2 -310h-220l-39 193q-24 24 -61 39t-75 15q-80 0 -132.5 -40t-78.5 -114t-26 -179v-30q0 -111 29 -182.5t77.5 -105.5t108.5 -34
q77 0 123.5 40.5t64.5 114.5h249l3 -6q-17 -115 -67.5 -199t-142 -129t-232.5 -45zM436 -459l-7 160q60 0 95.5 19.5t35.5 59.5q0 43 -35 59.5t-111 20.5l34 158h215l-13 -74q67 -11 112 -50.5t45 -117.5q0 -107 -97 -171t-274 -64z" />
    <glyph glyph-name="egrave" unicode="&#xe8;" horiz-adv-x="1078" 
d="M581 -21q-155 0 -271 68.5t-179.5 188.5t-63.5 274v40q0 161 60 285.5t169.5 196t258.5 70.5q147 0 247 -58t152 -167t52 -264v-159h-636l-2 -6q6 -71 35.5 -126.5t83.5 -87t131 -31.5q80 0 149.5 20.5t135.5 60.5l79 -180q-67 -54 -168.5 -89.5t-232.5 -35.5zM372 647
h361v26q0 66 -17.5 113.5t-56 73.5t-99.5 26q-58 0 -98 -30.5t-62.5 -83.5t-30.5 -120zM724 1287h-8h-226l-276 267l2 6h309z" />
    <glyph glyph-name="eacute" unicode="&#xe9;" horiz-adv-x="1078" 
d="M581 -21q-155 0 -271 68.5t-179.5 188.5t-63.5 274v40q0 161 60 285.5t169.5 196t258.5 70.5q147 0 247 -58t152 -167t52 -264v-159h-636l-2 -6q6 -71 35.5 -126.5t83.5 -87t131 -31.5q80 0 149.5 20.5t135.5 60.5l79 -180q-67 -54 -168.5 -89.5t-232.5 -35.5zM372 647
h361v26q0 66 -17.5 113.5t-56 73.5t-99.5 26q-58 0 -98 -30.5t-62.5 -83.5t-30.5 -120zM375 1287l199 273h309l2 -6l-276 -267h-226h-8z" />
    <glyph glyph-name="ecircumflex" unicode="&#xea;" horiz-adv-x="1078" 
d="M581 -21q-155 0 -271 68.5t-179.5 188.5t-63.5 274v40q0 161 60 285.5t169.5 196t258.5 70.5q147 0 247 -58t152 -167t52 -264v-159h-636l-2 -6q6 -71 35.5 -126.5t83.5 -87t131 -31.5q80 0 149.5 20.5t135.5 60.5l79 -180q-67 -54 -168.5 -89.5t-232.5 -35.5zM372 647
h361v26q0 66 -17.5 113.5t-56 73.5t-99.5 26q-58 0 -98 -30.5t-62.5 -83.5t-30.5 -120zM188 1291v26l255 243h215l253 -246v-23h-228l-133 144l-137 -144h-225z" />
    <glyph glyph-name="edieresis" unicode="&#xeb;" horiz-adv-x="1078" 
d="M581 -21q-155 0 -271 68.5t-179.5 188.5t-63.5 274v40q0 161 60 285.5t169.5 196t258.5 70.5q147 0 247 -58t152 -167t52 -264v-159h-636l-2 -6q6 -71 35.5 -126.5t83.5 -87t131 -31.5q80 0 149.5 20.5t135.5 60.5l79 -180q-67 -54 -168.5 -89.5t-232.5 -35.5zM372 647
h361v26q0 66 -17.5 113.5t-56 73.5t-99.5 26q-58 0 -98 -30.5t-62.5 -83.5t-30.5 -120zM634 1311v249h281v-249h-281zM183 1311v249h281v-249h-281z" />
    <glyph glyph-name="igrave" unicode="&#xec;" horiz-adv-x="661" 
d="M54 0v175l141 30v671l-156 30v176h448v-877l140 -30v-175h-573zM511 1287h-8h-226l-276 267l2 6h309z" />
    <glyph glyph-name="iacute" unicode="&#xed;" horiz-adv-x="661" 
d="M54 0v175l141 30v671l-156 30v176h448v-877l140 -30v-175h-573zM162 1287l199 273h309l2 -6l-276 -267h-226h-8z" />
    <glyph glyph-name="icircumflex" unicode="&#xee;" horiz-adv-x="661" 
d="M54 0v175l141 30v671l-156 30v176h448v-877l140 -30v-175h-573zM-26 1291v26l255 243h215l253 -246v-23h-228l-133 144l-137 -144h-225z" />
    <glyph glyph-name="idieresis" unicode="&#xef;" horiz-adv-x="661" 
d="M54 0v175l141 30v671l-156 30v176h448v-877l140 -30v-175h-573zM421 1311v249h281v-249h-281zM-30 1311v249h281v-249h-281z" />
    <glyph glyph-name="eth" unicode="&#xf0;" horiz-adv-x="1217" 
d="M598 -21q-159 0 -280.5 65t-189.5 177.5t-68 255.5q0 147 60.5 257t171.5 171.5t262 61.5q79 0 147.5 -22t118.5 -61l4 4q-20 75 -59 140t-92 118l-231 -128l-78 113l190 105q-35 20 -71.5 35t-73.5 28l92 218q86 -21 163.5 -56t145.5 -84l208 116l77 -113l-177 -98
q110 -117 170 -274.5t60 -346.5v-76q0 -178 -72.5 -314.5t-197 -214t-280.5 -77.5zM596 203q81 0 139.5 49t89.5 135t31 198v47v31q-34 40 -98.5 66t-149.5 26q-82 0 -139.5 -35.5t-87.5 -98.5t-30 -146q0 -77 31 -139t86 -97.5t128 -35.5z" />
    <glyph glyph-name="ntilde" unicode="&#xf1;" horiz-adv-x="1307" 
d="M52 0v175l140 30v671l-155 30v176h427l13 -155q54 83 133.5 129t181.5 46q161 0 252 -103t91 -323v-471l140 -30v-175h-558v175l125 30v470q0 109 -43 154.5t-128 45.5q-63 0 -109.5 -26.5t-77.5 -75.5v-568l118 -30v-175h-550zM432 1283l-151 40q0 67 31.5 124t83.5 92
t113 35q48 0 100 -24t99.5 -48.5t80.5 -24.5q41 1 65.5 31.5t24.5 77.5l151 -42q0 -69 -31.5 -125.5t-83.5 -90t-114 -33.5q-52 0 -104 24t-97 48.5t-79 24.5q-41 0 -65 -32t-24 -77z" />
    <glyph glyph-name="ograve" unicode="&#xf2;" horiz-adv-x="1155" 
d="M579 -21q-160 0 -275 70t-176 194.5t-61 286.5v21q0 161 61 285.5t175.5 195t273.5 70.5q161 0 275 -70.5t175 -194.5t61 -286v-21q0 -162 -61 -286.5t-175 -194.5t-273 -70zM579 203q76 0 124 41t71 114.5t23 171.5v21q0 96 -23 169.5t-71.5 115t-125.5 41.5
q-75 0 -124 -41.5t-71.5 -115t-22.5 -169.5v-21q0 -98 22.5 -172t71.5 -114.5t126 -40.5zM753 1287h-8h-226l-276 267l2 6h309z" />
    <glyph glyph-name="oacute" unicode="&#xf3;" horiz-adv-x="1155" 
d="M579 -21q-160 0 -275 70t-176 194.5t-61 286.5v21q0 161 61 285.5t175.5 195t273.5 70.5q161 0 275 -70.5t175 -194.5t61 -286v-21q0 -162 -61 -286.5t-175 -194.5t-273 -70zM579 203q76 0 124 41t71 114.5t23 171.5v21q0 96 -23 169.5t-71.5 115t-125.5 41.5
q-75 0 -124 -41.5t-71.5 -115t-22.5 -169.5v-21q0 -98 22.5 -172t71.5 -114.5t126 -40.5zM403 1287l199 273h309l2 -6l-276 -267h-226h-8z" />
    <glyph glyph-name="ocircumflex" unicode="&#xf4;" horiz-adv-x="1155" 
d="M579 -21q-160 0 -275 70t-176 194.5t-61 286.5v21q0 161 61 285.5t175.5 195t273.5 70.5q161 0 275 -70.5t175 -194.5t61 -286v-21q0 -162 -61 -286.5t-175 -194.5t-273 -70zM579 203q76 0 124 41t71 114.5t23 171.5v21q0 96 -23 169.5t-71.5 115t-125.5 41.5
q-75 0 -124 -41.5t-71.5 -115t-22.5 -169.5v-21q0 -98 22.5 -172t71.5 -114.5t126 -40.5zM216 1291v26l255 243h215l253 -246v-23h-228l-133 144l-137 -144h-225z" />
    <glyph glyph-name="otilde" unicode="&#xf5;" horiz-adv-x="1155" 
d="M579 -21q-160 0 -275 70t-176 194.5t-61 286.5v21q0 161 61 285.5t175.5 195t273.5 70.5q161 0 275 -70.5t175 -194.5t61 -286v-21q0 -162 -61 -286.5t-175 -194.5t-273 -70zM579 203q76 0 124 41t71 114.5t23 171.5v21q0 96 -23 169.5t-71.5 115t-125.5 41.5
q-75 0 -124 -41.5t-71.5 -115t-22.5 -169.5v-21q0 -98 22.5 -172t71.5 -114.5t126 -40.5zM354 1283l-151 40q0 67 31.5 124t83.5 92t113 35q48 0 100 -24t99.5 -48.5t80.5 -24.5q41 1 65.5 31.5t24.5 77.5l151 -42q0 -69 -31.5 -125.5t-83.5 -90t-114 -33.5q-52 0 -104 24
t-97 48.5t-79 24.5q-41 0 -65 -32t-24 -77z" />
    <glyph glyph-name="odieresis" unicode="&#xf6;" horiz-adv-x="1155" 
d="M579 -21q-160 0 -275 70t-176 194.5t-61 286.5v21q0 161 61 285.5t175.5 195t273.5 70.5q161 0 275 -70.5t175 -194.5t61 -286v-21q0 -162 -61 -286.5t-175 -194.5t-273 -70zM579 203q76 0 124 41t71 114.5t23 171.5v21q0 96 -23 169.5t-71.5 115t-125.5 41.5
q-75 0 -124 -41.5t-71.5 -115t-22.5 -169.5v-21q0 -98 22.5 -172t71.5 -114.5t126 -40.5zM663 1311v249h281v-249h-281zM212 1311v249h281v-249h-281z" />
    <glyph glyph-name="divide" unicode="&#xf7;" horiz-adv-x="1133" 
d="M56 573v227h1028v-227h-1028zM425 164v233h292v-233h-292zM425 973v233h292v-233h-292z" />
    <glyph glyph-name="oslash" unicode="&#xf8;" horiz-adv-x="1155" 
d="M579 -21q-160 0 -275 70t-176 194.5t-61 286.5v21q0 161 61 285.5t175.5 195t273.5 70.5q161 0 275 -70.5t175 -194.5t61 -286v-21q0 -162 -61 -286.5t-175 -194.5t-273 -70zM579 203q76 0 124 41t71 114.5t23 171.5v21q0 96 -23 169.5t-71.5 115t-125.5 41.5
q-75 0 -124 -41.5t-71.5 -115t-22.5 -169.5v-21q0 -98 22.5 -172t71.5 -114.5t126 -40.5zM165 -137l663 1356h162l-663 -1356h-162z" />
    <glyph glyph-name="ugrave" unicode="&#xf9;" horiz-adv-x="1275" 
d="M522 -21q-171 0 -268.5 108.5t-97.5 337.5v451l-119 30v176h119h292v-659q0 -116 40.5 -166.5t122.5 -50.5q65 0 115 25.5t82 72.5v572l-129 30v176h129h292v-877l130 -30v-175h-386l-20 137q-51 -76 -128 -117t-174 -41zM804 1287h-8h-226l-276 267l2 6h309z" />
    <glyph glyph-name="uacute" unicode="&#xfa;" horiz-adv-x="1275" 
d="M522 -21q-171 0 -268.5 108.5t-97.5 337.5v451l-119 30v176h119h292v-659q0 -116 40.5 -166.5t122.5 -50.5q65 0 115 25.5t82 72.5v572l-129 30v176h129h292v-877l130 -30v-175h-386l-20 137q-51 -76 -128 -117t-174 -41zM455 1287l199 273h309l2 -6l-276 -267h-226h-8z
" />
    <glyph glyph-name="ucircumflex" unicode="&#xfb;" horiz-adv-x="1275" 
d="M522 -21q-171 0 -268.5 108.5t-97.5 337.5v451l-119 30v176h119h292v-659q0 -116 40.5 -166.5t122.5 -50.5q65 0 115 25.5t82 72.5v572l-129 30v176h129h292v-877l130 -30v-175h-386l-20 137q-51 -76 -128 -117t-174 -41zM268 1291v26l255 243h215l253 -246v-23h-228
l-133 144l-137 -144h-225z" />
    <glyph glyph-name="udieresis" unicode="&#xfc;" horiz-adv-x="1275" 
d="M522 -21q-171 0 -268.5 108.5t-97.5 337.5v451l-119 30v176h119h292v-659q0 -116 40.5 -166.5t122.5 -50.5q65 0 115 25.5t82 72.5v572l-129 30v176h129h292v-877l130 -30v-175h-386l-20 137q-51 -76 -128 -117t-174 -41zM714 1311v249h281v-249h-281zM263 1311v249h281
v-249h-281z" />
    <glyph glyph-name="yacute" unicode="&#xfd;" horiz-adv-x="1285" 
d="M363 -437q-38 0 -80.5 6.5t-80.5 17.5l33 214q19 -4 42 -6t40 -2q63 0 109 33t67 95l24 67l-362 899l-133 19v176h574v-176l-132 -20l170 -477l21 -59h6l201 538l-129 18v176h535v-176l-122 -17l-413 -1050q-30 -75 -76.5 -137.5t-118 -100.5t-175.5 -38zM472 1287
l199 273h309l2 -6l-276 -267h-226h-8z" />
    <glyph glyph-name="thorn" unicode="&#xfe;" horiz-adv-x="1233" 
d="M49 -416v176l141 30v1564l-156 30v176h447v-591q47 64 113 98.5t157 34.5q130 0 223 -71.5t142.5 -199.5t49.5 -299v-21q0 -160 -50 -279.5t-143 -186t-224 -66.5q-88 0 -154.5 31.5t-113.5 92.5v-313l141 -30v-176h-573zM660 203q113 0 163.5 83t50.5 225v21
q0 102 -23 179t-71 120.5t-122 43.5q-59 0 -104.5 -27t-72.5 -77v-474q27 -46 72.5 -70t106.5 -24z" />
    <glyph glyph-name="ydieresis" unicode="&#xff;" horiz-adv-x="1285" 
d="M363 -437q-38 0 -80.5 6.5t-80.5 17.5l33 214q19 -4 42 -6t40 -2q63 0 109 33t67 95l24 67l-362 899l-133 19v176h574v-176l-132 -20l170 -477l21 -59h6l201 538l-129 18v176h535v-176l-122 -17l-413 -1050q-30 -75 -76.5 -137.5t-118 -100.5t-175.5 -38zM731 1311v249
h281v-249h-281zM280 1311v249h281v-249h-281z" />
    <glyph glyph-name="Amacron" unicode="&#x100;" horiz-adv-x="1512" 
d="M41 0v175l104 15l463 1266h299l460 -1266l104 -15v-175h-496v175l101 18l-64 200h-512l-64 -200l101 -18v-175h-496zM569 608h374l-170 499l-14 44h-6l-15 -47zM392 1594v176h731v-176h-731z" />
    <glyph glyph-name="amacron" unicode="&#x101;" horiz-adv-x="1154" 
d="M425 -21q-161 0 -256 86.5t-95 235.5q0 102 55.5 179t164 121t267.5 44h143v80q0 78 -45.5 126.5t-136.5 48.5q-47 0 -84.5 -11.5t-67.5 -32.5l-23 -143h-210l-4 281q85 48 184 78t221 30q212 0 335 -98.5t123 -281.5v-446q0 -22 0.5 -43.5t3.5 -41.5l113 -16v-175h-362
q-11 28 -22 60t-16 64q-52 -66 -122.5 -105.5t-165.5 -39.5zM503 195q61 0 116 27.5t85 72.5v171h-144q-96 0 -145.5 -44t-49.5 -106q0 -58 36.5 -89.5t101.5 -31.5zM181 1312v176h731v-176h-731z" />
    <glyph glyph-name="Abreve" unicode="&#x102;" horiz-adv-x="1512" 
d="M41 0v175l104 15l463 1266h299l460 -1266l104 -15v-175h-496v175l101 18l-64 200h-512l-64 -200l101 -18v-175h-496zM569 608h374l-170 499l-14 44h-6l-15 -47zM758 1545q-161 0 -256 81.5t-91 209.5l2 6h198q0 -58 35.5 -96t111.5 -38q75 0 110 37t35 97h200l2 -6
q2 -128 -92 -209.5t-255 -81.5z" />
    <glyph glyph-name="abreve" unicode="&#x103;" horiz-adv-x="1154" 
d="M425 -21q-161 0 -256 86.5t-95 235.5q0 102 55.5 179t164 121t267.5 44h143v80q0 78 -45.5 126.5t-136.5 48.5q-47 0 -84.5 -11.5t-67.5 -32.5l-23 -143h-210l-4 281q85 48 184 78t221 30q212 0 335 -98.5t123 -281.5v-446q0 -22 0.5 -43.5t3.5 -41.5l113 -16v-175h-362
q-11 28 -22 60t-16 64q-52 -66 -122.5 -105.5t-165.5 -39.5zM503 195q61 0 116 27.5t85 72.5v171h-144q-96 0 -145.5 -44t-49.5 -106q0 -58 36.5 -89.5t101.5 -31.5zM547 1263q-161 0 -256 81.5t-91 209.5l2 6h198q0 -58 35.5 -96t111.5 -38q75 0 110 37t35 97h200l2 -6
q2 -128 -92 -209.5t-255 -81.5z" />
    <glyph glyph-name="Aogonek" unicode="&#x104;" horiz-adv-x="1512" 
d="M41 0v175l104 15l463 1266h299l460 -1266l104 -15v-175h-496v175l101 18l-64 200h-512l-64 -200l101 -18v-175h-496zM569 608h374l-170 499l-14 44h-6l-15 -47zM1367 -424q-113 0 -183.5 57.5t-70.5 160.5q0 75 53.5 146.5t179.5 119.5l125 -60q-73 -45 -106 -85t-33 -85
q0 -38 21 -57t66 -19q24 0 44 4.5t40 11.5l35 -154q-35 -17 -76 -28.5t-95 -11.5z" />
    <glyph glyph-name="aogonek" unicode="&#x105;" horiz-adv-x="1154" 
d="M425 -21q-161 0 -256 86.5t-95 235.5q0 102 55.5 179t164 121t267.5 44h143v80q0 78 -45.5 126.5t-136.5 48.5q-47 0 -84.5 -11.5t-67.5 -32.5l-23 -143h-210l-4 281q85 48 184 78t221 30q212 0 335 -98.5t123 -281.5v-446q0 -22 0.5 -43.5t3.5 -41.5l113 -16v-175h-362
q-11 28 -22 60t-16 64q-52 -66 -122.5 -105.5t-165.5 -39.5zM503 195q61 0 116 27.5t85 72.5v171h-144q-96 0 -145.5 -44t-49.5 -106q0 -58 36.5 -89.5t101.5 -31.5zM1009 -424q-113 0 -183.5 57.5t-70.5 160.5q0 75 53.5 146.5t179.5 119.5l125 -60q-73 -45 -106 -85
t-33 -85q0 -38 21 -57t66 -19q24 0 44 4.5t40 11.5l35 -154q-35 -17 -76 -28.5t-95 -11.5z" />
    <glyph glyph-name="Cacute" unicode="&#x106;" horiz-adv-x="1321" 
d="M749 -21q-212 0 -369 88.5t-242.5 251t-85.5 384.5v49q0 212 82.5 375.5t235.5 256.5t364 93q148 0 277.5 -42t231.5 -128v-352h-217l-30 221q-33 24 -72 41t-84.5 26t-98.5 9q-124 0 -213 -61t-136.5 -172.5t-47.5 -264.5v-51q0 -153 50 -265t142 -173.5t218 -61.5
q63 0 126.5 14.5t115.5 37.5l30 205h217v-348q-85 -56 -212 -94.5t-282 -38.5zM544 1569l199 273h309l2 -6l-276 -267h-226h-8z" />
    <glyph glyph-name="cacute" unicode="&#x107;" horiz-adv-x="1082" 
d="M572 -21q-156 0 -269.5 70t-174.5 193.5t-61 282.5v30q0 160 62 283t175 193.5t266 70.5q146 0 251.5 -45.5t171.5 -105.5l-2 -310h-220l-39 193q-24 24 -61 39t-75 15q-80 0 -132.5 -40t-78.5 -114t-26 -179v-30q0 -111 29 -182.5t77.5 -105.5t108.5 -34
q77 0 123.5 40.5t64.5 114.5h249l3 -6q-17 -115 -67.5 -199t-142 -129t-232.5 -45zM380 1287l199 273h309l2 -6l-276 -267h-226h-8z" />
    <glyph glyph-name="Ccircumflex" unicode="&#x108;" horiz-adv-x="1321" 
d="M749 -21q-212 0 -369 88.5t-242.5 251t-85.5 384.5v49q0 212 82.5 375.5t235.5 256.5t364 93q148 0 277.5 -42t231.5 -128v-352h-217l-30 221q-33 24 -72 41t-84.5 26t-98.5 9q-124 0 -213 -61t-136.5 -172.5t-47.5 -264.5v-51q0 -153 50 -265t142 -173.5t218 -61.5
q63 0 126.5 14.5t115.5 37.5l30 205h217v-348q-85 -56 -212 -94.5t-282 -38.5zM357 1573v26l255 243h215l253 -246v-23h-228l-133 144l-137 -144h-225z" />
    <glyph glyph-name="ccircumflex" unicode="&#x109;" horiz-adv-x="1082" 
d="M572 -21q-156 0 -269.5 70t-174.5 193.5t-61 282.5v30q0 160 62 283t175 193.5t266 70.5q146 0 251.5 -45.5t171.5 -105.5l-2 -310h-220l-39 193q-24 24 -61 39t-75 15q-80 0 -132.5 -40t-78.5 -114t-26 -179v-30q0 -111 29 -182.5t77.5 -105.5t108.5 -34
q77 0 123.5 40.5t64.5 114.5h249l3 -6q-17 -115 -67.5 -199t-142 -129t-232.5 -45zM193 1291v26l255 243h215l253 -246v-23h-228l-133 144l-137 -144h-225z" />
    <glyph glyph-name="Cdotaccent" unicode="&#x10a;" horiz-adv-x="1321" 
d="M749 -21q-212 0 -369 88.5t-242.5 251t-85.5 384.5v49q0 212 82.5 375.5t235.5 256.5t364 93q148 0 277.5 -42t231.5 -128v-352h-217l-30 221q-33 24 -72 41t-84.5 26t-98.5 9q-124 0 -213 -61t-136.5 -172.5t-47.5 -264.5v-51q0 -153 50 -265t142 -173.5t218 -61.5
q63 0 126.5 14.5t115.5 37.5l30 205h217v-348q-85 -56 -212 -94.5t-282 -38.5zM567 1593v249h302v-249h-302z" />
    <glyph glyph-name="cdotaccent" unicode="&#x10b;" horiz-adv-x="1082" 
d="M572 -21q-156 0 -269.5 70t-174.5 193.5t-61 282.5v30q0 160 62 283t175 193.5t266 70.5q146 0 251.5 -45.5t171.5 -105.5l-2 -310h-220l-39 193q-24 24 -61 39t-75 15q-80 0 -132.5 -40t-78.5 -114t-26 -179v-30q0 -111 29 -182.5t77.5 -105.5t108.5 -34
q77 0 123.5 40.5t64.5 114.5h249l3 -6q-17 -115 -67.5 -199t-142 -129t-232.5 -45zM403 1311v249h302v-249h-302z" />
    <glyph glyph-name="Ccaron" unicode="&#x10c;" horiz-adv-x="1321" 
d="M749 -21q-212 0 -369 88.5t-242.5 251t-85.5 384.5v49q0 212 82.5 375.5t235.5 256.5t364 93q148 0 277.5 -42t231.5 -128v-352h-217l-30 221q-33 24 -72 41t-84.5 26t-98.5 9q-124 0 -213 -61t-136.5 -172.5t-47.5 -264.5v-51q0 -153 50 -265t142 -173.5t218 -61.5
q63 0 126.5 14.5t115.5 37.5l30 205h217v-348q-85 -56 -212 -94.5t-282 -38.5zM1080 1842v-26l-254 -243h-216l-253 246v23h228l134 -144l137 144h224z" />
    <glyph glyph-name="ccaron" unicode="&#x10d;" horiz-adv-x="1082" 
d="M572 -21q-156 0 -269.5 70t-174.5 193.5t-61 282.5v30q0 160 62 283t175 193.5t266 70.5q146 0 251.5 -45.5t171.5 -105.5l-2 -310h-220l-39 193q-24 24 -61 39t-75 15q-80 0 -132.5 -40t-78.5 -114t-26 -179v-30q0 -111 29 -182.5t77.5 -105.5t108.5 -34
q77 0 123.5 40.5t64.5 114.5h249l3 -6q-17 -115 -67.5 -199t-142 -129t-232.5 -45zM916 1560v-26l-254 -243h-216l-253 246v23h228l134 -144l137 144h224z" />
    <glyph glyph-name="Dcaron" unicode="&#x10e;" horiz-adv-x="1426" 
d="M56 0v175l157 33v1038l-157 34v176h157h482q195 0 344 -91.5t232.5 -253t83.5 -370.5v-27q0 -207 -82.5 -368.5t-230.5 -253.5t-343 -92h-643zM505 223h179q121 0 205 63.5t128.5 174.5t44.5 253v28q0 144 -44.5 254.5t-128.5 173t-205 62.5h-179v-1009zM1048 1842v-26
l-254 -243h-216l-253 246v23h228l134 -144l137 144h224z" />
    <glyph glyph-name="dcaron" unicode="&#x10f;" horiz-adv-x="1213" 
d="M479 -21q-129 0 -221.5 66.5t-141.5 186t-49 279.5v21q0 171 49.5 299t141.5 199.5t220 71.5q89 0 156 -35.5t116 -100.5v388l-156 30v176h156h292v-1355l140 -30v-175h-393l-22 132q-51 -75 -121.5 -114t-166.5 -39zM566 206q61 0 107 26t77 75v459q-30 52 -76 80.5
t-106 28.5q-73 0 -119.5 -43.5t-68 -120.5t-21.5 -179v-21q0 -142 48 -223.5t159 -81.5zM1238 1156l-135 89q32 49 48.5 98.5t16.5 122.5v94h246v-81q0 -95 -49.5 -180t-126.5 -143z" />
    <glyph glyph-name="Dcroat" unicode="&#x110;" horiz-adv-x="1426" 
d="M56 0v175l157 33v1038l-157 34v176h157h482q195 0 344 -91.5t232.5 -253t83.5 -370.5v-27q0 -207 -82.5 -368.5t-230.5 -253.5t-343 -92h-643zM505 223h179q121 0 205 63.5t128.5 174.5t44.5 253v28q0 144 -44.5 254.5t-128.5 173t-205 62.5h-179v-1009zM45 660v155h659
v-155h-659z" />
    <glyph glyph-name="dcroat" unicode="&#x111;" horiz-adv-x="1212" 
d="M479 -21q-129 0 -221.5 66.5t-141.5 186t-49 279.5v21q0 171 49.5 299t141.5 199.5t220 71.5q89 0 156 -35.5t116 -100.5v388l-156 30v176h156h292v-1355l140 -30v-175h-393l-22 132q-51 -75 -121.5 -114t-166.5 -39zM566 206q61 0 107 26t77 75v459q-30 52 -76 80.5
t-106 28.5q-73 0 -119.5 -43.5t-68 -120.5t-21.5 -179v-21q0 -142 48 -223.5t159 -81.5zM539 1133v155h659v-155h-659z" />
    <glyph glyph-name="Emacron" unicode="&#x112;" horiz-adv-x="1308" 
d="M56 0v175l155 30v1045l-155 30v176h1130v-393h-224l-13 168h-446v-366h493v-225h-493v-416h470l13 174h222v-398h-1152zM288 1594v176h731v-176h-731z" />
    <glyph glyph-name="emacron" unicode="&#x113;" horiz-adv-x="1078" 
d="M581 -21q-155 0 -271 68.5t-179.5 188.5t-63.5 274v40q0 161 60 285.5t169.5 196t258.5 70.5q147 0 247 -58t152 -167t52 -264v-159h-636l-2 -6q6 -71 35.5 -126.5t83.5 -87t131 -31.5q80 0 149.5 20.5t135.5 60.5l79 -180q-67 -54 -168.5 -89.5t-232.5 -35.5zM372 647
h361v26q0 66 -17.5 113.5t-56 73.5t-99.5 26q-58 0 -98 -30.5t-62.5 -83.5t-30.5 -120zM184 1312v176h731v-176h-731z" />
    <glyph glyph-name="Ebreve" unicode="&#x114;" horiz-adv-x="1308" 
d="M56 0v175l155 30v1045l-155 30v176h1130v-393h-224l-13 168h-446v-366h493v-225h-493v-416h470l13 174h222v-398h-1152zM654 1545q-161 0 -256 81.5t-91 209.5l2 6h198q0 -58 35.5 -96t111.5 -38q75 0 110 37t35 97h200l2 -6q2 -128 -92 -209.5t-255 -81.5z" />
    <glyph glyph-name="ebreve" unicode="&#x115;" horiz-adv-x="1078" 
d="M581 -21q-155 0 -271 68.5t-179.5 188.5t-63.5 274v40q0 161 60 285.5t169.5 196t258.5 70.5q147 0 247 -58t152 -167t52 -264v-159h-636l-2 -6q6 -71 35.5 -126.5t83.5 -87t131 -31.5q80 0 149.5 20.5t135.5 60.5l79 -180q-67 -54 -168.5 -89.5t-232.5 -35.5zM372 647
h361v26q0 66 -17.5 113.5t-56 73.5t-99.5 26q-58 0 -98 -30.5t-62.5 -83.5t-30.5 -120zM550 1263q-161 0 -256 81.5t-91 209.5l2 6h198q0 -58 35.5 -96t111.5 -38q75 0 110 37t35 97h200l2 -6q2 -128 -92 -209.5t-255 -81.5z" />
    <glyph glyph-name="Edotaccent" unicode="&#x116;" horiz-adv-x="1308" 
d="M56 0v175l155 30v1045l-155 30v176h1130v-393h-224l-13 168h-446v-366h493v-225h-493v-416h470l13 174h222v-398h-1152zM503 1593v249h302v-249h-302z" />
    <glyph glyph-name="edotaccent" unicode="&#x117;" horiz-adv-x="1078" 
d="M581 -21q-155 0 -271 68.5t-179.5 188.5t-63.5 274v40q0 161 60 285.5t169.5 196t258.5 70.5q147 0 247 -58t152 -167t52 -264v-159h-636l-2 -6q6 -71 35.5 -126.5t83.5 -87t131 -31.5q80 0 149.5 20.5t135.5 60.5l79 -180q-67 -54 -168.5 -89.5t-232.5 -35.5zM372 647
h361v26q0 66 -17.5 113.5t-56 73.5t-99.5 26q-58 0 -98 -30.5t-62.5 -83.5t-30.5 -120zM398 1311v249h302v-249h-302z" />
    <glyph glyph-name="Eogonek" unicode="&#x118;" horiz-adv-x="1308" 
d="M56 0v175l155 30v1045l-155 30v176h1130v-393h-224l-13 168h-446v-366h493v-225h-493v-416h470l13 174h222v-398h-1152zM1103 -424q-113 0 -183.5 57.5t-70.5 160.5q0 75 53.5 146.5t179.5 119.5l125 -60q-73 -45 -106 -85t-33 -85q0 -38 21 -57t66 -19q24 0 44 4.5
t40 11.5l35 -154q-35 -17 -76 -28.5t-95 -11.5z" />
    <glyph glyph-name="eogonek" unicode="&#x119;" horiz-adv-x="1078" 
d="M581 -21q-155 0 -271 68.5t-179.5 188.5t-63.5 274v40q0 161 60 285.5t169.5 196t258.5 70.5q147 0 247 -58t152 -167t52 -264v-159h-636l-2 -6q6 -71 35.5 -126.5t83.5 -87t131 -31.5q80 0 149.5 20.5t135.5 60.5l79 -180q-67 -54 -168.5 -89.5t-232.5 -35.5zM372 647
h361v26q0 66 -17.5 113.5t-56 73.5t-99.5 26q-58 0 -98 -30.5t-62.5 -83.5t-30.5 -120zM779 -424q-111 0 -182.5 59.5t-71.5 166.5q0 92 71 175t240 136l59 -62q-78 -48 -114.5 -97.5t-36.5 -109.5q0 -47 22 -68.5t69 -21.5q25 0 45.5 4.5t39.5 11.5l35 -154
q-34 -17 -76 -28.5t-100 -11.5z" />
    <glyph glyph-name="Ecaron" unicode="&#x11a;" horiz-adv-x="1308" 
d="M56 0v175l155 30v1045l-155 30v176h1130v-393h-224l-13 168h-446v-366h493v-225h-493v-416h470l13 174h222v-398h-1152zM1015 1842v-26l-254 -243h-216l-253 246v23h228l134 -144l137 144h224z" />
    <glyph glyph-name="ecaron" unicode="&#x11b;" horiz-adv-x="1078" 
d="M581 -21q-155 0 -271 68.5t-179.5 188.5t-63.5 274v40q0 161 60 285.5t169.5 196t258.5 70.5q147 0 247 -58t152 -167t52 -264v-159h-636l-2 -6q6 -71 35.5 -126.5t83.5 -87t131 -31.5q80 0 149.5 20.5t135.5 60.5l79 -180q-67 -54 -168.5 -89.5t-232.5 -35.5zM372 647
h361v26q0 66 -17.5 113.5t-56 73.5t-99.5 26q-58 0 -98 -30.5t-62.5 -83.5t-30.5 -120zM911 1560v-26l-254 -243h-216l-253 246v23h228l134 -144l137 144h224z" />
    <glyph glyph-name="Gcircumflex" unicode="&#x11c;" horiz-adv-x="1373" 
d="M733 -21q-217 0 -370 90t-234.5 250t-81.5 371v50q0 218 81 384t229.5 259.5t351.5 93.5q157 0 295 -43t240 -129v-323h-216l-41 195q-39 34 -105 54.5t-151 20.5q-122 0 -210.5 -64t-135.5 -179t-47 -267v-52q0 -148 46.5 -257.5t136.5 -169.5t221 -60q77 0 141.5 14.5
t106.5 35.5v247l-208 16v205h501v-589q-97 -69 -233.5 -111t-316.5 -42zM325 1573v26l255 243h215l253 -246v-23h-228l-133 144l-137 -144h-225z" />
    <glyph glyph-name="gcircumflex" unicode="&#x11d;" horiz-adv-x="1198" 
d="M540 -437q-82 0 -184 21t-180 60l54 208q70 -30 148.5 -47.5t146.5 -17.5q117 0 171.5 65t54.5 181v71q-48 -61 -113 -93t-149 -32q-132 0 -227 66.5t-145 186.5t-50 279v21q0 171 50 299t143 199.5t223 71.5q97 0 167 -40.5t119 -115.5l21 136h254v-1050
q0 -143 -60.5 -248t-173.5 -163t-270 -58zM571 206q62 0 107 24.5t73 71.5v470q-28 49 -73.5 76t-105.5 27q-75 0 -122 -43.5t-69 -120t-22 -179.5v-21q0 -142 49 -223.5t163 -81.5zM1007 871l-127 211h291v-176zM230 1291v26l255 243h215l253 -246v-23h-228l-133 144
l-137 -144h-225z" />
    <glyph glyph-name="Gbreve" unicode="&#x11e;" horiz-adv-x="1373" 
d="M733 -21q-217 0 -370 90t-234.5 250t-81.5 371v50q0 218 81 384t229.5 259.5t351.5 93.5q157 0 295 -43t240 -129v-323h-216l-41 195q-39 34 -105 54.5t-151 20.5q-122 0 -210.5 -64t-135.5 -179t-47 -267v-52q0 -148 46.5 -257.5t136.5 -169.5t221 -60q77 0 141.5 14.5
t106.5 35.5v247l-208 16v205h501v-589q-97 -69 -233.5 -111t-316.5 -42zM687 1545q-161 0 -256 81.5t-91 209.5l2 6h198q0 -58 35.5 -96t111.5 -38q75 0 110 37t35 97h200l2 -6q2 -128 -92 -209.5t-255 -81.5z" />
    <glyph glyph-name="gbreve" unicode="&#x11f;" horiz-adv-x="1198" 
d="M540 -437q-82 0 -184 21t-180 60l54 208q70 -30 148.5 -47.5t146.5 -17.5q117 0 171.5 65t54.5 181v71q-48 -61 -113 -93t-149 -32q-132 0 -227 66.5t-145 186.5t-50 279v21q0 171 50 299t143 199.5t223 71.5q97 0 167 -40.5t119 -115.5l21 136h254v-1050
q0 -143 -60.5 -248t-173.5 -163t-270 -58zM571 206q62 0 107 24.5t73 71.5v470q-28 49 -73.5 76t-105.5 27q-75 0 -122 -43.5t-69 -120t-22 -179.5v-21q0 -142 49 -223.5t163 -81.5zM1007 871l-127 211h291v-176zM592 1263q-161 0 -256 81.5t-91 209.5l2 6h198
q0 -58 35.5 -96t111.5 -38q75 0 110 37t35 97h200l2 -6q2 -128 -92 -209.5t-255 -81.5z" />
    <glyph glyph-name="Gdotaccent" unicode="&#x120;" horiz-adv-x="1373" 
d="M733 -21q-217 0 -370 90t-234.5 250t-81.5 371v50q0 218 81 384t229.5 259.5t351.5 93.5q157 0 295 -43t240 -129v-323h-216l-41 195q-39 34 -105 54.5t-151 20.5q-122 0 -210.5 -64t-135.5 -179t-47 -267v-52q0 -148 46.5 -257.5t136.5 -169.5t221 -60q77 0 141.5 14.5
t106.5 35.5v247l-208 16v205h501v-589q-97 -69 -233.5 -111t-316.5 -42zM535 1593v249h302v-249h-302z" />
    <glyph glyph-name="gdotaccent" unicode="&#x121;" horiz-adv-x="1198" 
d="M540 -437q-82 0 -184 21t-180 60l54 208q70 -30 148.5 -47.5t146.5 -17.5q117 0 171.5 65t54.5 181v71q-48 -61 -113 -93t-149 -32q-132 0 -227 66.5t-145 186.5t-50 279v21q0 171 50 299t143 199.5t223 71.5q97 0 167 -40.5t119 -115.5l21 136h254v-1050
q0 -143 -60.5 -248t-173.5 -163t-270 -58zM571 206q62 0 107 24.5t73 71.5v470q-28 49 -73.5 76t-105.5 27q-75 0 -122 -43.5t-69 -120t-22 -179.5v-21q0 -142 49 -223.5t163 -81.5zM1007 871l-127 211h291v-176zM440 1311v249h302v-249h-302z" />
    <glyph glyph-name="uni0122" unicode="&#x122;" horiz-adv-x="1373" 
d="M733 -21q-217 0 -370 90t-234.5 250t-81.5 371v50q0 218 81 384t229.5 259.5t351.5 93.5q157 0 295 -43t240 -129v-323h-216l-41 195q-39 34 -105 54.5t-151 20.5q-122 0 -210.5 -64t-135.5 -179t-47 -267v-52q0 -148 46.5 -257.5t136.5 -169.5t221 -60q77 0 141.5 14.5
t106.5 35.5v247l-208 16v205h501v-589q-97 -69 -233.5 -111t-316.5 -42zM644 -532l-135 89q32 49 48.5 98.5t16.5 122.5v94h246v-81q0 -95 -49.5 -180t-126.5 -143z" />
    <glyph glyph-name="uni0123" unicode="&#x123;" horiz-adv-x="1198" 
d="M540 -437q-82 0 -184 21t-180 60l54 208q70 -30 148.5 -47.5t146.5 -17.5q117 0 171.5 65t54.5 181v71q-48 -61 -113 -93t-149 -32q-132 0 -227 66.5t-145 186.5t-50 279v21q0 171 50 299t143 199.5t223 71.5q97 0 167 -40.5t119 -115.5l21 136h254v-1050
q0 -143 -60.5 -248t-173.5 -163t-270 -58zM571 206q62 0 107 24.5t73 71.5v470q-28 49 -73.5 76t-105.5 27q-75 0 -122 -43.5t-69 -120t-22 -179.5v-21q0 -142 49 -223.5t163 -81.5zM1007 871l-127 211h291v-176zM613 1683l135 -90q-32 -48 -48.5 -97.5t-16.5 -122.5v-94
h-246v80q0 96 49.5 180.5t126.5 143.5z" />
    <glyph glyph-name="Hcircumflex" unicode="&#x124;" horiz-adv-x="1600" 
d="M56 0v175l155 30v1045l-155 30v176h603v-176l-156 -30v-420h594v420l-156 30v176h156h291h156v-176l-156 -30v-1045l156 -30v-175h-603v175l156 30v400h-594v-400l156 -30v-175h-603zM438 1573v26l255 243h215l253 -246v-23h-228l-133 144l-137 -144h-225z" />
    <glyph glyph-name="hcircumflex" unicode="&#x125;" horiz-adv-x="1302" 
d="M47 0v175l141 30v1149l-156 30v176h447v-616q51 75 126.5 116.5t171.5 41.5q163 0 258.5 -108.5t95.5 -335.5v-453l140 -30v-175h-558v175l126 30v455q0 117 -44 166t-129 49q-59 0 -107.5 -24.5t-79.5 -71.5v-574l126 -30v-175h-558zM-23 1665v26l255 243h215l253 -246
v-23h-228l-133 144l-137 -144h-225z" />
    <glyph glyph-name="Hbar" unicode="&#x126;" horiz-adv-x="1600" 
d="M56 0v175l155 30v1045l-155 30v176h603v-176l-156 -30v-420h594v420l-156 30v176h156h291h156v-176l-156 -30v-1045l156 -30v-175h-603v175l156 30v400h-594v-400l156 -30v-175h-603zM60 959v151h1479v-151h-1479z" />
    <glyph glyph-name="hbar" unicode="&#x127;" horiz-adv-x="1302" 
d="M47 0v175l141 30v1149l-156 30v176h447v-616q51 75 126.5 116.5t171.5 41.5q163 0 258.5 -108.5t95.5 -335.5v-453l140 -30v-175h-558v175l126 30v455q0 117 -44 166t-129 49q-59 0 -107.5 -24.5t-79.5 -71.5v-574l126 -30v-175h-558zM32 1133v155h659v-155h-659z" />
    <glyph glyph-name="Itilde" unicode="&#x128;" horiz-adv-x="714" 
d="M56 0v175l155 30v1045l-155 30v176h602v-176l-155 -30v-1045l155 -30v-175h-602zM134 1565l-151 40q0 67 31.5 124t83.5 92t113 35q48 0 100 -24t99.5 -48.5t80.5 -24.5q41 1 65.5 31.5t24.5 77.5l151 -42q0 -69 -31.5 -125.5t-83.5 -90t-114 -33.5q-52 0 -104 24
t-97 48.5t-79 24.5q-41 0 -65 -32t-24 -77z" />
    <glyph glyph-name="itilde" unicode="&#x129;" horiz-adv-x="661" 
d="M54 0v175l141 30v671l-156 30v176h448v-877l140 -30v-175h-573zM113 1283l-151 40q0 67 31.5 124t83.5 92t113 35q48 0 100 -24t99.5 -48.5t80.5 -24.5q41 1 65.5 31.5t24.5 77.5l151 -42q0 -69 -31.5 -125.5t-83.5 -90t-114 -33.5q-52 0 -104 24t-97 48.5t-79 24.5
q-41 0 -65 -32t-24 -77z" />
    <glyph glyph-name="Imacron" unicode="&#x12a;" horiz-adv-x="714" 
d="M56 0v175l155 30v1045l-155 30v176h602v-176l-155 -30v-1045l155 -30v-175h-602zM-9 1594v176h731v-176h-731z" />
    <glyph glyph-name="imacron" unicode="&#x12b;" horiz-adv-x="661" 
d="M54 0v175l141 30v671l-156 30v176h448v-877l140 -30v-175h-573zM-30 1312v176h731v-176h-731z" />
    <glyph glyph-name="Ibreve" unicode="&#x12c;" horiz-adv-x="714" 
d="M56 0v175l155 30v1045l-155 30v176h602v-176l-155 -30v-1045l155 -30v-175h-602zM358 1545q-161 0 -256 81.5t-91 209.5l2 6h198q0 -58 35.5 -96t111.5 -38q75 0 110 37t35 97h200l2 -6q2 -128 -92 -209.5t-255 -81.5z" />
    <glyph glyph-name="ibreve" unicode="&#x12d;" horiz-adv-x="661" 
d="M54 0v175l141 30v671l-156 30v176h448v-877l140 -30v-175h-573zM337 1263q-161 0 -256 81.5t-91 209.5l2 6h198q0 -58 35.5 -96t111.5 -38q75 0 110 37t35 97h200l2 -6q2 -128 -92 -209.5t-255 -81.5z" />
    <glyph glyph-name="Iogonek" unicode="&#x12e;" horiz-adv-x="714" 
d="M56 0v175l155 30v1045l-155 30v176h602v-176l-155 -30v-1045l155 -30v-175h-602zM554 -424q-113 0 -183.5 57.5t-70.5 160.5q0 75 53.5 146.5t179.5 119.5l125 -60q-73 -45 -106 -85t-33 -85q0 -38 21 -57t66 -19q24 0 44 4.5t40 11.5l35 -154q-35 -17 -76 -28.5
t-95 -11.5z" />
    <glyph glyph-name="iogonek" unicode="&#x12f;" horiz-adv-x="661" 
d="M54 0v175l141 30v671l-156 30v176h448v-877l140 -30v-175h-573zM185 1311v249h302v-249h-302zM523 -424q-113 0 -183.5 57.5t-70.5 160.5q0 75 53.5 146.5t179.5 119.5l125 -60q-73 -45 -106 -85t-33 -85q0 -38 21 -57t66 -19q24 0 44 4.5t40 11.5l35 -154
q-35 -17 -76 -28.5t-95 -11.5z" />
    <glyph glyph-name="Idotaccent" unicode="&#x130;" horiz-adv-x="714" 
d="M56 0v175l155 30v1045l-155 30v176h602v-176l-155 -30v-1045l155 -30v-175h-602zM206 1593v249h302v-249h-302z" />
    <glyph glyph-name="dotlessi" unicode="&#x131;" horiz-adv-x="661" 
d="M54 0v175l141 30v671l-156 30v176h448v-877l140 -30v-175h-573z" />
    <glyph glyph-name="IJ" unicode="&#x132;" horiz-adv-x="1905" 
d="M56 0v175l155 30v1045l-155 30v176h602v-176l-155 -30v-1045l155 -30v-175h-602zM1266 -21q-152 0 -266.5 51.5t-180 157.5t-71.5 269l2 6h274q8 -143 64 -199.5t149 -56.5q60 0 105.5 26t72 77.5t26.5 126.5v813l-196 30v176h643v-176l-156 -30v-813q0 -140 -54 -243
t-158 -159t-254 -56z" />
    <glyph glyph-name="ij" unicode="&#x133;" horiz-adv-x="1259" 
d="M54 0v175l141 30v671l-156 30v176h448v-877l140 -30v-175h-573zM185 1311v249h302v-249h-302zM765 -437q-41 0 -74.5 4t-69.5 13l15 221q22 -6 46.5 -9.5t51.5 -3.5q57 0 89 45t32 127v916l-156 30v176h447v-1122q0 -191 -100.5 -294t-280.5 -103zM841 1311v249h302v-249
h-302z" />
    <glyph glyph-name="Jcircumflex" unicode="&#x134;" horiz-adv-x="1202" 
d="M553 -21q-152 0 -266.5 51.5t-180 157.5t-71.5 269l2 6h274q8 -143 64 -199.5t149 -56.5q60 0 105.5 26t72 77.5t26.5 126.5v813l-196 30v176h643v-176l-156 -30v-813q0 -140 -54 -243t-158 -159t-254 -56zM506 1573v26l255 243h215l253 -246v-23h-228l-133 144
l-137 -144h-225z" />
    <glyph glyph-name="jcircumflex" unicode="&#x135;" horiz-adv-x="600" 
d="M105 -437q-41 0 -74.5 4t-69.5 13l15 221q22 -6 46.5 -9.5t51.5 -3.5q57 0 89 45t32 127v916l-156 30v176h447v-1122q0 -191 -100.5 -294t-280.5 -103zM-29 1291v26l255 243h215l253 -246v-23h-228l-133 144l-137 -144h-225z" />
    <glyph glyph-name="uni0136" unicode="&#x136;" horiz-adv-x="1545" 
d="M442 357l-151 173l713 735l2 3l-144 12v176h599v-176l-137 -27zM56 0v175l155 30v1045l-155 30v176h595v-176l-148 -30v-1045l148 -30v-175h-595zM894 0v175l136 12h1l-370 510l193 193l516 -690l143 -25v-175h-619zM729 -532l-135 89q32 49 48.5 98.5t16.5 122.5v94h246
v-81q0 -95 -49.5 -180t-126.5 -143z" />
    <glyph glyph-name="uni0137" unicode="&#x137;" horiz-adv-x="1316" 
d="M47 0v175l141 30v1149l-156 30v176h447v-1355l126 -30v-175h-558zM736 0v166l82 19l-2 4l-214 291l186 191l355 -465l134 -31v-175h-541zM448 296l-140 163l470 430l2 3l-111 16v174h563v-176l-140 -35zM615 -532l-135 89q32 49 48.5 98.5t16.5 122.5v94h246v-81
q0 -95 -49.5 -180t-126.5 -143z" />
    <glyph glyph-name="kgreenlandic" unicode="&#x138;" horiz-adv-x="1303" 
d="M461 293l-133 176l438 418l3 3l-102 18v174h551v-176l-139 -33zM51 0v175l146 33v664l-157 34v176h449v-874l138 -33v-175h-576zM913 0l-331 476l193 211l343 -481l125 -31v-175h-330z" />
    <glyph glyph-name="Lacute" unicode="&#x139;" horiz-adv-x="1200" 
d="M56 0v175l155 30v1045l-155 30v176h155h292h176v-176l-176 -30v-1026h411l14 213h223v-437h-1095zM197 1569l199 273h309l2 -6l-276 -267h-226h-8z" />
    <glyph glyph-name="lacute" unicode="&#x13a;" horiz-adv-x="653" 
d="M47 0v175l141 30v1149l-156 30v176h448v-1355l141 -30v-175h-574zM162 1661l199 273h309l2 -6l-276 -267h-226h-8z" />
    <glyph glyph-name="uni013B" unicode="&#x13b;" horiz-adv-x="1200" 
d="M56 0v175l155 30v1045l-155 30v176h155h292h176v-176l-176 -30v-1026h411l14 213h223v-437h-1095zM557 -532l-135 89q32 49 48.5 98.5t16.5 122.5v94h246v-81q0 -95 -49.5 -180t-126.5 -143z" />
    <glyph glyph-name="uni013C" unicode="&#x13c;" horiz-adv-x="653" 
d="M47 0v175l141 30v1149l-156 30v176h448v-1355l141 -30v-175h-574zM294 -532l-135 89q32 49 48.5 98.5t16.5 122.5v94h246v-81q0 -95 -49.5 -180t-126.5 -143z" />
    <glyph glyph-name="Lcaron" unicode="&#x13d;" horiz-adv-x="1200" 
d="M56 0v175l155 30v1045l-155 30v176h155h292h176v-176l-176 -30v-1026h411l14 213h223v-437h-1095zM999 1052l-135 89q32 49 48.5 98.5t16.5 122.5v94h246v-81q0 -95 -49.5 -180t-126.5 -143z" />
    <glyph glyph-name="lcaron" unicode="&#x13e;" horiz-adv-x="653" 
d="M47 0v175l141 30v1149l-156 30v176h448v-1355l141 -30v-175h-574zM676 1156l-135 89q32 49 48.5 98.5t16.5 122.5v94h246v-81q0 -95 -49.5 -180t-126.5 -143z" />
    <glyph glyph-name="Ldot" unicode="&#x13f;" horiz-adv-x="1200" 
d="M56 0v175l155 30v1045l-155 30v176h155h292h176v-176l-176 -30v-1026h411l14 213h223v-437h-1095zM836 614v256h291v-256h-291z" />
    <glyph glyph-name="ldot" unicode="&#x140;" horiz-adv-x="653" 
d="M47 0v175l141 30v1149l-156 30v176h448v-1355l141 -30v-175h-574zM606 614v256h291v-256h-291z" />
    <glyph glyph-name="Lslash" unicode="&#x141;" horiz-adv-x="1200" 
d="M56 0v175l155 30v1045l-155 30v176h155h292h176v-176l-176 -30v-1026h411l14 213h223v-437h-1095zM77 571v195l650 187v-195z" />
    <glyph glyph-name="lslash" unicode="&#x142;" horiz-adv-x="653" 
d="M47 0v175l141 30v1149l-156 30v176h448v-1355l141 -30v-175h-574zM54 572v195l565 187v-195z" />
    <glyph glyph-name="Nacute" unicode="&#x143;" horiz-adv-x="1604" 
d="M56 0v175l155 30v1045l-155 30v176h155h296l634 -1010l6 1v803l-186 30v176h447h156v-176l-156 -30v-1250h-282l-648 1000l-6 -1v-794l187 -30v-175h-603zM628 1569l199 273h309l2 -6l-276 -267h-226h-8z" />
    <glyph glyph-name="nacute" unicode="&#x144;" horiz-adv-x="1307" 
d="M52 0v175l140 30v671l-155 30v176h427l13 -155q54 83 133.5 129t181.5 46q161 0 252 -103t91 -323v-471l140 -30v-175h-558v175l125 30v470q0 109 -43 154.5t-128 45.5q-63 0 -109.5 -26.5t-77.5 -75.5v-568l118 -30v-175h-550zM481 1287l199 273h309l2 -6l-276 -267
h-226h-8z" />
    <glyph glyph-name="uni0145" unicode="&#x145;" horiz-adv-x="1604" 
d="M56 0v175l155 30v1045l-155 30v176h155h296l634 -1010l6 1v803l-186 30v176h447h156v-176l-156 -30v-1250h-282l-648 1000l-6 -1v-794l187 -30v-175h-603zM759 -532l-135 89q32 49 48.5 98.5t16.5 122.5v94h246v-81q0 -95 -49.5 -180t-126.5 -143z" />
    <glyph glyph-name="uni0146" unicode="&#x146;" horiz-adv-x="1307" 
d="M52 0v175l140 30v671l-155 30v176h427l13 -155q54 83 133.5 129t181.5 46q161 0 252 -103t91 -323v-471l140 -30v-175h-558v175l125 30v470q0 109 -43 154.5t-128 45.5q-63 0 -109.5 -26.5t-77.5 -75.5v-568l118 -30v-175h-550zM613 -532l-135 89q32 49 48.5 98.5
t16.5 122.5v94h246v-81q0 -95 -49.5 -180t-126.5 -143z" />
    <glyph glyph-name="Ncaron" unicode="&#x147;" horiz-adv-x="1604" 
d="M56 0v175l155 30v1045l-155 30v176h155h296l634 -1010l6 1v803l-186 30v176h447h156v-176l-156 -30v-1250h-282l-648 1000l-6 -1v-794l187 -30v-175h-603zM1163 1842v-26l-254 -243h-216l-253 246v23h228l134 -144l137 144h224z" />
    <glyph glyph-name="ncaron" unicode="&#x148;" horiz-adv-x="1307" 
d="M52 0v175l140 30v671l-155 30v176h427l13 -155q54 83 133.5 129t181.5 46q161 0 252 -103t91 -323v-471l140 -30v-175h-558v175l125 30v470q0 109 -43 154.5t-128 45.5q-63 0 -109.5 -26.5t-77.5 -75.5v-568l118 -30v-175h-550zM1016 1560v-26l-254 -243h-216l-253 246
v23h228l134 -144l137 144h224z" />
    <glyph glyph-name="napostrophe" unicode="&#x149;" horiz-adv-x="1307" 
d="M52 0v175l140 30v671l-155 30v176h427l13 -155q54 83 133.5 129t181.5 46q161 0 252 -103t91 -323v-471l140 -30v-175h-558v175l125 30v470q0 109 -43 154.5t-128 45.5q-63 0 -109.5 -26.5t-77.5 -75.5v-568l118 -30v-175h-550zM167 1156l-135 89q32 49 48.5 98.5
t16.5 122.5v94h246v-81q0 -95 -49.5 -180t-126.5 -143z" />
    <glyph glyph-name="Eng" unicode="&#x14a;" horiz-adv-x="1584" 
d="M1019 -437q-41 0 -74 4t-70 13l14 221q23 -6 47 -9.5t48 -3.5q60 0 92.5 45t32.5 127v40l-587 982l-6 -1v-776l155 -30v-175h-603v175l156 30v1045l-156 30v176h448l587 -981l6 1v774l-155 30v176h602v-176l-155 -30v-1290q0 -190 -101 -293.5t-281 -103.5z" />
    <glyph glyph-name="eng" unicode="&#x14b;" horiz-adv-x="1282" 
d="M792 -437q-41 0 -75 4t-70 13l14 224q22 -5 46.5 -8.5t50.5 -3.5q60 0 91.5 43t31.5 125v702q0 116 -40.5 164.5t-123.5 48.5q-63 0 -111.5 -27t-80.5 -74v-569l140 -30v-175h-572v175l140 30v671l-155 30v176h426l14 -152q53 81 133 126.5t180 45.5q159 0 250.5 -106
t91.5 -333v-703q0 -190 -101 -293.5t-280 -103.5z" />
    <glyph glyph-name="Omacron" unicode="&#x14c;" horiz-adv-x="1446" 
d="M723 -21q-147 0 -268 55t-208.5 154.5t-134.5 234t-47 294.5v22q0 159 47 293.5t134 234.5t208 155t268 55q148 0 270 -55t210 -155t135.5 -234.5t47.5 -293.5v-22q0 -160 -47.5 -294.5t-135.5 -234t-209.5 -154.5t-269.5 -55zM723 206q124 0 206 64t123.5 179t41.5 268
v24q0 151 -42 265.5t-124.5 178.5t-205.5 64q-122 0 -203 -63.5t-121.5 -177.5t-40.5 -267v-24q0 -153 40.5 -268t122 -179t203.5 -64zM358 1594v176h731v-176h-731z" />
    <glyph glyph-name="omacron" unicode="&#x14d;" horiz-adv-x="1155" 
d="M579 -21q-160 0 -275 70t-176 194.5t-61 286.5v21q0 161 61 285.5t175.5 195t273.5 70.5q161 0 275 -70.5t175 -194.5t61 -286v-21q0 -162 -61 -286.5t-175 -194.5t-273 -70zM579 203q76 0 124 41t71 114.5t23 171.5v21q0 96 -23 169.5t-71.5 115t-125.5 41.5
q-75 0 -124 -41.5t-71.5 -115t-22.5 -169.5v-21q0 -98 22.5 -172t71.5 -114.5t126 -40.5zM212 1312v176h731v-176h-731z" />
    <glyph glyph-name="Obreve" unicode="&#x14e;" horiz-adv-x="1446" 
d="M723 -21q-147 0 -268 55t-208.5 154.5t-134.5 234t-47 294.5v22q0 159 47 293.5t134 234.5t208 155t268 55q148 0 270 -55t210 -155t135.5 -234.5t47.5 -293.5v-22q0 -160 -47.5 -294.5t-135.5 -234t-209.5 -154.5t-269.5 -55zM723 206q124 0 206 64t123.5 179t41.5 268
v24q0 151 -42 265.5t-124.5 178.5t-205.5 64q-122 0 -203 -63.5t-121.5 -177.5t-40.5 -267v-24q0 -153 40.5 -268t122 -179t203.5 -64zM724 1545q-161 0 -256 81.5t-91 209.5l2 6h198q0 -58 35.5 -96t111.5 -38q75 0 110 37t35 97h200l2 -6q2 -128 -92 -209.5t-255 -81.5z
" />
    <glyph glyph-name="obreve" unicode="&#x14f;" horiz-adv-x="1155" 
d="M579 -21q-160 0 -275 70t-176 194.5t-61 286.5v21q0 161 61 285.5t175.5 195t273.5 70.5q161 0 275 -70.5t175 -194.5t61 -286v-21q0 -162 -61 -286.5t-175 -194.5t-273 -70zM579 203q76 0 124 41t71 114.5t23 171.5v21q0 96 -23 169.5t-71.5 115t-125.5 41.5
q-75 0 -124 -41.5t-71.5 -115t-22.5 -169.5v-21q0 -98 22.5 -172t71.5 -114.5t126 -40.5zM578 1263q-161 0 -256 81.5t-91 209.5l2 6h198q0 -58 35.5 -96t111.5 -38q75 0 110 37t35 97h200l2 -6q2 -128 -92 -209.5t-255 -81.5z" />
    <glyph glyph-name="Ohungarumlaut" unicode="&#x150;" horiz-adv-x="1446" 
d="M723 -21q-147 0 -268 55t-208.5 154.5t-134.5 234t-47 294.5v22q0 159 47 293.5t134 234.5t208 155t268 55q148 0 270 -55t210 -155t135.5 -234.5t47.5 -293.5v-22q0 -160 -47.5 -294.5t-135.5 -234t-209.5 -154.5t-269.5 -55zM723 206q124 0 206 64t123.5 179t41.5 268
v24q0 151 -42 265.5t-124.5 178.5t-205.5 64q-122 0 -203 -63.5t-121.5 -177.5t-40.5 -267v-24q0 -153 40.5 -268t122 -179t203.5 -64zM712 1569l-2 5l240 268h277l2 -6l-293 -267h-224zM373 1569h-7l199 273h260l2 -5l-240 -268h-214z" />
    <glyph glyph-name="ohungarumlaut" unicode="&#x151;" horiz-adv-x="1155" 
d="M579 -21q-160 0 -275 70t-176 194.5t-61 286.5v21q0 161 61 285.5t175.5 195t273.5 70.5q161 0 275 -70.5t175 -194.5t61 -286v-21q0 -162 -61 -286.5t-175 -194.5t-273 -70zM579 203q76 0 124 41t71 114.5t23 171.5v21q0 96 -23 169.5t-71.5 115t-125.5 41.5
q-75 0 -124 -41.5t-71.5 -115t-22.5 -169.5v-21q0 -98 22.5 -172t71.5 -114.5t126 -40.5zM567 1287l-2 5l240 268h277l2 -6l-293 -267h-224zM228 1287h-7l199 273h260l2 -5l-240 -268h-214z" />
    <glyph glyph-name="OE" unicode="&#x152;" horiz-adv-x="2029" 
d="M751 -21q-156 0 -282.5 55t-217 154.5t-138.5 234t-48 294.5v22q0 159 48 293.5t138 234.5t216 155t283 55q83 0 168 -13.5t169 -39.5v-282q-72 51 -159.5 79t-177.5 28q-135 0 -222 -63.5t-129 -177.5t-42 -267v-24q0 -153 42.5 -268t130 -179t221.5 -64q89 0 175.5 26
t160.5 72v-273q-84 -25 -169 -38.5t-167 -13.5zM864 0l66 191v1073l-66 192h1061v-399h-224l-13 174h-466v-366h493v-225h-493v-416h470l13 174h222v-398h-1063z" />
    <glyph glyph-name="oe" unicode="&#x153;" horiz-adv-x="1828" 
d="M579 -21q-160 0 -275 70t-176 194.5t-61 286.5v21q0 161 61 285.5t175.5 195t273.5 70.5q115 0 208.5 -42.5t160.5 -120.5q64 80 152.5 121.5t196.5 41.5q146 0 249 -59.5t157.5 -169.5t54.5 -260v-159h-648l-1 -6q5 -71 35.5 -126.5t83 -87t126.5 -31.5q65 0 113.5 8.5
t92.5 26.5t94 46l80 -180q-66 -53 -173 -89t-238 -36q-78 0 -146.5 18.5t-125.5 54.5t-102 88q-65 -79 -158.5 -120t-209.5 -41zM579 203q75 0 123 41t71.5 114.5t23.5 171.5v21q0 96 -23.5 169.5t-72 115t-124.5 41.5t-124.5 -41.5t-71 -115t-22.5 -169.5v-21
q0 -98 22.5 -172t71.5 -114.5t126 -40.5zM1111 647h359v26q0 63 -19.5 108.5t-58 70.5t-97.5 25q-54 0 -93 -28t-62.5 -79t-30.5 -118z" />
    <glyph glyph-name="Racute" unicode="&#x154;" horiz-adv-x="1408" 
d="M56 0v175l155 30v1045l-155 30v176h690q168 0 288 -52t184.5 -149t64.5 -233q0 -128 -64 -229t-178 -159t-263 -59h-275v-370l156 -30v-175h-603zM993 0l-245 629l263 65l212 -490l124 -29v-175h-354zM503 800h238q126 0 188.5 53.5t62.5 155.5q0 101 -62 161.5
t-184 60.5h-243v-431zM525 1569l199 273h309l2 -6l-276 -267h-226h-8z" />
    <glyph glyph-name="racute" unicode="&#x155;" horiz-adv-x="886" 
d="M85 0v175l140 30v671l-155 30v176h427l11 -134l2 -24q40 88 99 133t141 45q26 0 57 -4.5t55 -11.5l-31 -269l-145 8q-62 3 -100.5 -21t-68.5 -69v-530l140 -30v-175h-572zM278 1287l199 273h309l2 -6l-276 -267h-226h-8z" />
    <glyph glyph-name="uni0156" unicode="&#x156;" horiz-adv-x="1408" 
d="M56 0v175l155 30v1045l-155 30v176h690q168 0 288 -52t184.5 -149t64.5 -233q0 -128 -64 -229t-178 -159t-263 -59h-275v-370l156 -30v-175h-603zM993 0l-245 629l263 65l212 -490l124 -29v-175h-354zM503 800h238q126 0 188.5 53.5t62.5 155.5q0 101 -62 161.5
t-184 60.5h-243v-431zM661 -532l-135 89q32 49 48.5 98.5t16.5 122.5v94h246v-81q0 -95 -49.5 -180t-126.5 -143z" />
    <glyph glyph-name="uni0157" unicode="&#x157;" horiz-adv-x="886" 
d="M85 0v175l140 30v671l-155 30v176h427l11 -134l2 -24q40 88 99 133t141 45q26 0 57 -4.5t55 -11.5l-31 -269l-145 8q-62 3 -100.5 -21t-68.5 -69v-530l140 -30v-175h-572zM367 -532l-135 89q32 49 48.5 98.5t16.5 122.5v94h246v-81q0 -95 -49.5 -180t-126.5 -143z" />
    <glyph glyph-name="Rcaron" unicode="&#x158;" horiz-adv-x="1408" 
d="M56 0v175l155 30v1045l-155 30v176h690q168 0 288 -52t184.5 -149t64.5 -233q0 -128 -64 -229t-178 -159t-263 -59h-275v-370l156 -30v-175h-603zM993 0l-245 629l263 65l212 -490l124 -29v-175h-354zM503 800h238q126 0 188.5 53.5t62.5 155.5q0 101 -62 161.5
t-184 60.5h-243v-431zM1061 1842v-26l-254 -243h-216l-253 246v23h228l134 -144l137 144h224z" />
    <glyph glyph-name="rcaron" unicode="&#x159;" horiz-adv-x="886" 
d="M85 0v175l140 30v671l-155 30v176h427l11 -134l2 -24q40 88 99 133t141 45q26 0 57 -4.5t55 -11.5l-31 -269l-145 8q-62 3 -100.5 -21t-68.5 -69v-530l140 -30v-175h-572zM813 1560v-26l-254 -243h-216l-253 246v23h228l134 -144l137 144h224z" />
    <glyph glyph-name="Sacute" unicode="&#x15a;" horiz-adv-x="1247" 
d="M650 -21q-161 0 -293 36t-260 125v352h226l31 -207q45 -38 124 -61.5t172 -23.5q79 0 133.5 22t83 62.5t28.5 95.5q0 52 -25.5 92.5t-84 74t-158.5 64.5q-173 51 -286.5 111.5t-170 145t-56.5 203.5q0 118 65.5 208.5t181.5 142.5t268 54q168 2 297.5 -40t223.5 -117
v-328h-219l-38 200q-38 24 -102.5 42t-146.5 18q-70 0 -123.5 -21t-84.5 -61t-31 -97q0 -49 27 -85.5t90.5 -69t175.5 -69.5q241 -67 365.5 -177t124.5 -289q0 -124 -67 -214.5t-188 -139.5t-283 -49zM449 1569l199 273h309l2 -6l-276 -267h-226h-8z" />
    <glyph glyph-name="sacute" unicode="&#x15b;" horiz-adv-x="1034" 
d="M527 -21q-121 0 -225.5 23t-200.5 66l-3 306h203l39 -156q34 -17 74.5 -27t92.5 -10q98 0 138 32t40 80q0 45 -42.5 79.5t-169.5 60.5q-192 40 -283 124t-91 215q0 90 45.5 164t139 119t239.5 45q122 0 223.5 -23.5t170.5 -61.5l3 -296h-202l-31 142q-27 20 -63.5 30
t-82.5 10q-77 0 -118 -31t-41 -80q0 -28 14.5 -52t57.5 -45t125 -40q201 -46 293 -122.5t92 -214.5q0 -151 -109.5 -244t-327.5 -93zM343 1287l199 273h309l2 -6l-276 -267h-226h-8z" />
    <glyph glyph-name="Scircumflex" unicode="&#x15c;" horiz-adv-x="1247" 
d="M650 -21q-161 0 -293 36t-260 125v352h226l31 -207q45 -38 124 -61.5t172 -23.5q79 0 133.5 22t83 62.5t28.5 95.5q0 52 -25.5 92.5t-84 74t-158.5 64.5q-173 51 -286.5 111.5t-170 145t-56.5 203.5q0 118 65.5 208.5t181.5 142.5t268 54q168 2 297.5 -40t223.5 -117
v-328h-219l-38 200q-38 24 -102.5 42t-146.5 18q-70 0 -123.5 -21t-84.5 -61t-31 -97q0 -49 27 -85.5t90.5 -69t175.5 -69.5q241 -67 365.5 -177t124.5 -289q0 -124 -67 -214.5t-188 -139.5t-283 -49zM261 1573v26l255 243h215l253 -246v-23h-228l-133 144l-137 -144h-225z
" />
    <glyph glyph-name="scircumflex" unicode="&#x15d;" horiz-adv-x="1034" 
d="M527 -21q-121 0 -225.5 23t-200.5 66l-3 306h203l39 -156q34 -17 74.5 -27t92.5 -10q98 0 138 32t40 80q0 45 -42.5 79.5t-169.5 60.5q-192 40 -283 124t-91 215q0 90 45.5 164t139 119t239.5 45q122 0 223.5 -23.5t170.5 -61.5l3 -296h-202l-31 142q-27 20 -63.5 30
t-82.5 10q-77 0 -118 -31t-41 -80q0 -28 14.5 -52t57.5 -45t125 -40q201 -46 293 -122.5t92 -214.5q0 -151 -109.5 -244t-327.5 -93zM155 1291v26l255 243h215l253 -246v-23h-228l-133 144l-137 -144h-225z" />
    <glyph glyph-name="Scedilla" unicode="&#x15e;" horiz-adv-x="1247" 
d="M650 -21q-161 0 -293 36t-260 125v352h226l31 -207q45 -38 124 -61.5t172 -23.5q79 0 133.5 22t83 62.5t28.5 95.5q0 52 -25.5 92.5t-84 74t-158.5 64.5q-173 51 -286.5 111.5t-170 145t-56.5 203.5q0 118 65.5 208.5t181.5 142.5t268 54q168 2 297.5 -40t223.5 -117
v-328h-219l-38 200q-38 24 -102.5 42t-146.5 18q-70 0 -123.5 -21t-84.5 -61t-31 -97q0 -49 27 -85.5t90.5 -69t175.5 -69.5q241 -67 365.5 -177t124.5 -289q0 -124 -67 -214.5t-188 -139.5t-283 -49zM505 -459l-7 160q60 0 95.5 19.5t35.5 59.5q0 43 -35 59.5t-111 20.5
l34 158h215l-13 -74q67 -11 112 -50.5t45 -117.5q0 -107 -97 -171t-274 -64z" />
    <glyph glyph-name="scedilla" unicode="&#x15f;" horiz-adv-x="1034" 
d="M527 -21q-121 0 -225.5 23t-200.5 66l-3 306h203l39 -156q34 -17 74.5 -27t92.5 -10q98 0 138 32t40 80q0 45 -42.5 79.5t-169.5 60.5q-192 40 -283 124t-91 215q0 90 45.5 164t139 119t239.5 45q122 0 223.5 -23.5t170.5 -61.5l3 -296h-202l-31 142q-27 20 -63.5 30
t-82.5 10q-77 0 -118 -31t-41 -80q0 -28 14.5 -52t57.5 -45t125 -40q201 -46 293 -122.5t92 -214.5q0 -151 -109.5 -244t-327.5 -93zM399 -459l-7 160q60 0 95.5 19.5t35.5 59.5q0 43 -35 59.5t-111 20.5l34 158h215l-13 -74q67 -11 112 -50.5t45 -117.5q0 -107 -97 -171
t-274 -64z" />
    <glyph glyph-name="Scaron" unicode="&#x160;" horiz-adv-x="1247" 
d="M650 -21q-161 0 -293 36t-260 125v352h226l31 -207q45 -38 124 -61.5t172 -23.5q79 0 133.5 22t83 62.5t28.5 95.5q0 52 -25.5 92.5t-84 74t-158.5 64.5q-173 51 -286.5 111.5t-170 145t-56.5 203.5q0 118 65.5 208.5t181.5 142.5t268 54q168 2 297.5 -40t223.5 -117
v-328h-219l-38 200q-38 24 -102.5 42t-146.5 18q-70 0 -123.5 -21t-84.5 -61t-31 -97q0 -49 27 -85.5t90.5 -69t175.5 -69.5q241 -67 365.5 -177t124.5 -289q0 -124 -67 -214.5t-188 -139.5t-283 -49zM984 1842v-26l-254 -243h-216l-253 246v23h228l134 -144l137 144h224z
" />
    <glyph glyph-name="scaron" unicode="&#x161;" horiz-adv-x="1034" 
d="M527 -21q-121 0 -225.5 23t-200.5 66l-3 306h203l39 -156q34 -17 74.5 -27t92.5 -10q98 0 138 32t40 80q0 45 -42.5 79.5t-169.5 60.5q-192 40 -283 124t-91 215q0 90 45.5 164t139 119t239.5 45q122 0 223.5 -23.5t170.5 -61.5l3 -296h-202l-31 142q-27 20 -63.5 30
t-82.5 10q-77 0 -118 -31t-41 -80q0 -28 14.5 -52t57.5 -45t125 -40q201 -46 293 -122.5t92 -214.5q0 -151 -109.5 -244t-327.5 -93zM878 1560v-26l-254 -243h-216l-253 246v23h228l134 -144l137 144h224z" />
    <glyph glyph-name="uni0162" unicode="&#x162;" horiz-adv-x="1389" 
d="M391 0v175l156 30v1026h-265l-16 -174h-221v399h1299v-399h-222l-16 174h-267v-1026l157 -30v-175h-605zM576 -459l-7 160q60 0 95.5 19.5t35.5 59.5q0 43 -35 59.5t-111 20.5l34 158h215l-13 -74q67 -11 112 -50.5t45 -117.5q0 -107 -97 -171t-274 -64z" />
    <glyph glyph-name="uni0163" unicode="&#x163;" horiz-adv-x="735" 
d="M488 -21q-151 0 -232.5 83t-81.5 263v552h-149v205h149v265h291v-265h199v-205h-199v-551q0 -63 26.5 -90t72.5 -27q24 0 52 3.5t48 7.5l25 -211q-45 -13 -97.5 -21.5t-103.5 -8.5zM255 -459l-7 160q60 0 95.5 19.5t35.5 59.5q0 43 -35 59.5t-111 20.5l34 158h215
l-13 -74q67 -11 112 -50.5t45 -117.5q0 -107 -97 -171t-274 -64z" />
    <glyph glyph-name="Tcaron" unicode="&#x164;" horiz-adv-x="1389" 
d="M391 0v175l156 30v1026h-265l-16 -174h-221v399h1299v-399h-222l-16 174h-267v-1026l157 -30v-175h-605zM1056 1842v-26l-254 -243h-216l-253 246v23h228l134 -144l137 144h224z" />
    <glyph glyph-name="tcaron" unicode="&#x165;" horiz-adv-x="735" 
d="M488 -21q-151 0 -232.5 83t-81.5 263v552h-149v205h149v265h291v-265h199v-205h-199v-551q0 -63 26.5 -90t72.5 -27q24 0 52 3.5t48 7.5l25 -211q-45 -13 -97.5 -21.5t-103.5 -8.5zM673 1156l-135 89q32 49 48.5 98.5t16.5 122.5v94h246v-81q0 -95 -49.5 -180
t-126.5 -143z" />
    <glyph glyph-name="Tbar" unicode="&#x166;" horiz-adv-x="1389" 
d="M391 0v175l156 30v1026h-265l-16 -174h-221v399h1299v-399h-222l-16 174h-267v-1026l157 -30v-175h-605zM365 653v155h659v-155h-659z" />
    <glyph glyph-name="tbar" unicode="&#x167;" horiz-adv-x="735" 
d="M488 -21q-151 0 -232.5 83t-81.5 263v552h-149v205h149v265h291v-265h199v-205h-199v-551q0 -63 26.5 -90t72.5 -27q24 0 52 3.5t48 7.5l25 -211q-45 -13 -97.5 -21.5t-103.5 -8.5zM14 597v155h659v-155h-659z" />
    <glyph glyph-name="Utilde" unicode="&#x168;" horiz-adv-x="1555" 
d="M776 -21q-173 0 -304.5 60t-204.5 174t-73 277v760l-155 30v176h603v-176l-156 -30v-760q0 -96 35 -160t100 -95.5t155 -31.5q92 0 157.5 31.5t100.5 95.5t35 160v760l-155 30v176h603v-176l-156 -30v-760q0 -163 -73.5 -277.5t-205 -174t-306.5 -59.5zM554 1565l-151 40
q0 67 31.5 124t83.5 92t113 35q48 0 100 -24t99.5 -48.5t80.5 -24.5q41 1 65.5 31.5t24.5 77.5l151 -42q0 -69 -31.5 -125.5t-83.5 -90t-114 -33.5q-52 0 -104 24t-97 48.5t-79 24.5q-41 0 -65 -32t-24 -77z" />
    <glyph glyph-name="utilde" unicode="&#x169;" horiz-adv-x="1275" 
d="M522 -21q-171 0 -268.5 108.5t-97.5 337.5v451l-119 30v176h119h292v-659q0 -116 40.5 -166.5t122.5 -50.5q65 0 115 25.5t82 72.5v572l-129 30v176h129h292v-877l130 -30v-175h-386l-20 137q-51 -76 -128 -117t-174 -41zM406 1283l-151 40q0 67 31.5 124t83.5 92t113 35
q48 0 100 -24t99.5 -48.5t80.5 -24.5q41 1 65.5 31.5t24.5 77.5l151 -42q0 -69 -31.5 -125.5t-83.5 -90t-114 -33.5q-52 0 -104 24t-97 48.5t-79 24.5q-41 0 -65 -32t-24 -77z" />
    <glyph glyph-name="Umacron" unicode="&#x16a;" horiz-adv-x="1555" 
d="M776 -21q-173 0 -304.5 60t-204.5 174t-73 277v760l-155 30v176h603v-176l-156 -30v-760q0 -96 35 -160t100 -95.5t155 -31.5q92 0 157.5 31.5t100.5 95.5t35 160v760l-155 30v176h603v-176l-156 -30v-760q0 -163 -73.5 -277.5t-205 -174t-306.5 -59.5zM412 1594v176h731
v-176h-731z" />
    <glyph glyph-name="umacron" unicode="&#x16b;" horiz-adv-x="1275" 
d="M522 -21q-171 0 -268.5 108.5t-97.5 337.5v451l-119 30v176h119h292v-659q0 -116 40.5 -166.5t122.5 -50.5q65 0 115 25.5t82 72.5v572l-129 30v176h129h292v-877l130 -30v-175h-386l-20 137q-51 -76 -128 -117t-174 -41zM264 1312v176h731v-176h-731z" />
    <glyph glyph-name="Ubreve" unicode="&#x16c;" horiz-adv-x="1555" 
d="M776 -21q-173 0 -304.5 60t-204.5 174t-73 277v760l-155 30v176h603v-176l-156 -30v-760q0 -96 35 -160t100 -95.5t155 -31.5q92 0 157.5 31.5t100.5 95.5t35 160v760l-155 30v176h603v-176l-156 -30v-760q0 -163 -73.5 -277.5t-205 -174t-306.5 -59.5zM778 1545
q-161 0 -256 81.5t-91 209.5l2 6h198q0 -58 35.5 -96t111.5 -38q75 0 110 37t35 97h200l2 -6q2 -128 -92 -209.5t-255 -81.5z" />
    <glyph glyph-name="ubreve" unicode="&#x16d;" horiz-adv-x="1275" 
d="M522 -21q-171 0 -268.5 108.5t-97.5 337.5v451l-119 30v176h119h292v-659q0 -116 40.5 -166.5t122.5 -50.5q65 0 115 25.5t82 72.5v572l-129 30v176h129h292v-877l130 -30v-175h-386l-20 137q-51 -76 -128 -117t-174 -41zM630 1263q-161 0 -256 81.5t-91 209.5l2 6h198
q0 -58 35.5 -96t111.5 -38q75 0 110 37t35 97h200l2 -6q2 -128 -92 -209.5t-255 -81.5z" />
    <glyph glyph-name="Uring" unicode="&#x16e;" horiz-adv-x="1555" 
d="M776 -21q-173 0 -304.5 60t-204.5 174t-73 277v760l-155 30v176h603v-176l-156 -30v-760q0 -96 35 -160t100 -95.5t155 -31.5q92 0 157.5 31.5t100.5 95.5t35 160v760l-155 30v176h603v-176l-156 -30v-760q0 -163 -73.5 -277.5t-205 -174t-306.5 -59.5zM780 1510
q-100 0 -167.5 60t-67.5 154q0 93 68 156t167 63q97 0 163.5 -63t66.5 -156q0 -94 -66.5 -154t-163.5 -60zM780 1627q41 0 66.5 27t25.5 70q0 44 -25.5 71.5t-66.5 27.5q-42 0 -69.5 -27.5t-27.5 -71.5q0 -43 27.5 -70t69.5 -27z" />
    <glyph glyph-name="uring" unicode="&#x16f;" horiz-adv-x="1275" 
d="M522 -21q-171 0 -268.5 108.5t-97.5 337.5v451l-119 30v176h119h292v-659q0 -116 40.5 -166.5t122.5 -50.5q65 0 115 25.5t82 72.5v572l-129 30v176h129h292v-877l130 -30v-175h-386l-20 137q-51 -76 -128 -117t-174 -41zM632 1228q-100 0 -167.5 60t-67.5 154
q0 93 68 156t167 63q97 0 163.5 -63t66.5 -156q0 -94 -66.5 -154t-163.5 -60zM632 1345q41 0 66.5 27t25.5 70q0 44 -25.5 71.5t-66.5 27.5q-42 0 -69.5 -27.5t-27.5 -71.5q0 -43 27.5 -70t69.5 -27z" />
    <glyph glyph-name="Uhungarumlaut" unicode="&#x170;" horiz-adv-x="1555" 
d="M776 -21q-173 0 -304.5 60t-204.5 174t-73 277v760l-155 30v176h603v-176l-156 -30v-760q0 -96 35 -160t100 -95.5t155 -31.5q92 0 157.5 31.5t100.5 95.5t35 160v760l-155 30v176h603v-176l-156 -30v-760q0 -163 -73.5 -277.5t-205 -174t-306.5 -59.5zM767 1569l-2 5
l240 268h277l2 -6l-293 -267h-224zM428 1569h-7l199 273h260l2 -5l-240 -268h-214z" />
    <glyph glyph-name="uhungarumlaut" unicode="&#x171;" horiz-adv-x="1275" 
d="M522 -21q-171 0 -268.5 108.5t-97.5 337.5v451l-119 30v176h119h292v-659q0 -116 40.5 -166.5t122.5 -50.5q65 0 115 25.5t82 72.5v572l-129 30v176h129h292v-877l130 -30v-175h-386l-20 137q-51 -76 -128 -117t-174 -41zM618 1287l-2 5l240 268h277l2 -6l-293 -267h-224
zM279 1287h-7l199 273h260l2 -5l-240 -268h-214z" />
    <glyph glyph-name="Uogonek" unicode="&#x172;" horiz-adv-x="1555" 
d="M776 -21q-173 0 -304.5 60t-204.5 174t-73 277v760l-155 30v176h603v-176l-156 -30v-760q0 -96 35 -160t100 -95.5t155 -31.5q92 0 157.5 31.5t100.5 95.5t35 160v760l-155 30v176h603v-176l-156 -30v-760q0 -163 -73.5 -277.5t-205 -174t-306.5 -59.5zM841 -424
q-113 0 -183.5 57.5t-70.5 160.5q0 75 53.5 146.5t179.5 119.5l125 -60q-73 -45 -106 -85t-33 -85q0 -38 21 -57t66 -19q24 0 44 4.5t40 11.5l35 -154q-35 -17 -76 -28.5t-95 -11.5z" />
    <glyph glyph-name="uogonek" unicode="&#x173;" horiz-adv-x="1275" 
d="M522 -21q-171 0 -268.5 108.5t-97.5 337.5v451l-119 30v176h119h292v-659q0 -116 40.5 -166.5t122.5 -50.5q65 0 115 25.5t82 72.5v572l-129 30v176h129h292v-877l130 -30v-175h-386l-20 137q-51 -76 -128 -117t-174 -41zM1126 -424q-113 0 -183.5 57.5t-70.5 160.5
q0 75 53.5 146.5t179.5 119.5l125 -60q-73 -45 -106 -85t-33 -85q0 -38 21 -57t66 -19q24 0 44 4.5t40 11.5l35 -154q-35 -17 -76 -28.5t-95 -11.5z" />
    <glyph glyph-name="Wcircumflex" unicode="&#x174;" horiz-adv-x="2202" 
d="M521 0l-338 1265l-149 15v176h586v-176l-157 -23l171 -708l31 -130h6l37 130l288 907h215l299 -932l35 -115h6l30 115l177 733l-166 23v176h575v-176l-139 -15l-342 -1265h-264l-276 851l-35 120h-6l-39 -124l-279 -847h-266zM739 1573v26l255 243h215l253 -246v-23h-228
l-133 144l-137 -144h-225z" />
    <glyph glyph-name="wcircumflex" unicode="&#x175;" horiz-adv-x="1822" 
d="M417 0l-252 882l-132 24v176h523v-175l-114 -22l100 -421l20 -83h6l27 83l222 618h196l215 -626l28 -88h6l26 88l118 428l-126 23v175h512v-176l-126 -24l-275 -882h-246l-198 536l-35 119h-6l-35 -120l-195 -535h-259zM549 1291v26l255 243h215l253 -246v-23h-228
l-133 144l-137 -144h-225z" />
    <glyph glyph-name="Ycircumflex" unicode="&#x176;" horiz-adv-x="1508" 
d="M452 0v175l156 30v294l-432 761l-140 20v176h581v-176l-119 -17l242 -465l22 -47l6 1l22 44l269 467l-160 17v176h570v-176l-144 -20l-426 -738v-317l156 -30v-175h-603zM393 1573v26l255 243h215l253 -246v-23h-228l-133 144l-137 -144h-225z" />
    <glyph glyph-name="ycircumflex" unicode="&#x177;" horiz-adv-x="1285" 
d="M363 -437q-38 0 -80.5 6.5t-80.5 17.5l33 214q19 -4 42 -6t40 -2q63 0 109 33t67 95l24 67l-362 899l-133 19v176h574v-176l-132 -20l170 -477l21 -59h6l201 538l-129 18v176h535v-176l-122 -17l-413 -1050q-30 -75 -76.5 -137.5t-118 -100.5t-175.5 -38zM285 1291v26
l255 243h215l253 -246v-23h-228l-133 144l-137 -144h-225z" />
    <glyph glyph-name="Ydieresis" unicode="&#x178;" horiz-adv-x="1508" 
d="M452 0v175l156 30v294l-432 761l-140 20v176h581v-176l-119 -17l242 -465l22 -47l6 1l22 44l269 467l-160 17v176h570v-176l-144 -20l-426 -738v-317l156 -30v-175h-603zM839 1593v249h281v-249h-281zM388 1593v249h281v-249h-281z" />
    <glyph glyph-name="Zacute" unicode="&#x179;" horiz-adv-x="1226" 
d="M74 0v192l710 1039h-443l-23 -186h-223l12 411h1036v-186l-713 -1046h507l24 186h222l-18 -410h-1091zM433 1569l199 273h309l2 -6l-276 -267h-226h-8z" />
    <glyph glyph-name="zacute" unicode="&#x17a;" horiz-adv-x="1107" 
d="M88 0v172l563 706h-292l-33 -185h-214v389h889v-187l-531 -686h306l43 199h205v-408h-936zM379 1287l199 273h309l2 -6l-276 -267h-226h-8z" />
    <glyph glyph-name="Zdotaccent" unicode="&#x17b;" horiz-adv-x="1226" 
d="M74 0v192l710 1039h-443l-23 -186h-223l12 411h1036v-186l-713 -1046h507l24 186h222l-18 -410h-1091zM456 1593v249h302v-249h-302z" />
    <glyph glyph-name="zdotaccent" unicode="&#x17c;" horiz-adv-x="1107" 
d="M88 0v172l563 706h-292l-33 -185h-214v389h889v-187l-531 -686h306l43 199h205v-408h-936zM402 1311v249h302v-249h-302z" />
    <glyph glyph-name="Zcaron" unicode="&#x17d;" horiz-adv-x="1226" 
d="M74 0v192l710 1039h-443l-23 -186h-223l12 411h1036v-186l-713 -1046h507l24 186h222l-18 -410h-1091zM969 1842v-26l-254 -243h-216l-253 246v23h228l134 -144l137 144h224z" />
    <glyph glyph-name="zcaron" unicode="&#x17e;" horiz-adv-x="1107" 
d="M88 0v172l563 706h-292l-33 -185h-214v389h889v-187l-531 -686h306l43 199h205v-408h-936zM915 1560v-26l-254 -243h-216l-253 246v23h228l134 -144l137 144h224z" />
    <glyph glyph-name="longs" unicode="&#x17f;" horiz-adv-x="753" 
d="M44 0v175l140 30v997q0 182 105.5 280.5t290.5 98.5q42 0 82.5 -5.5t81.5 -15.5l-24 -215q-25 6 -48 8.5t-46 2.5q-73 0 -111.5 -40.5t-38.5 -113.5v-997l155 -30v-175h-587z" />
    <glyph glyph-name="uni018F" unicode="&#x18f;" horiz-adv-x="1400" 
d="M699 -21q-203 0 -344 82t-213.5 234.5t-72.5 364.5v150h948l3 24q2 116 -40.5 206.5t-133 142.5t-232.5 52q-119 0 -213 -19.5t-171 -46.5l-49 225q55 28 166.5 55.5t266.5 27.5q225 0 382 -83.5t238.5 -234t81.5 -352.5v-162q0 -195 -81.5 -345.5t-221 -236
t-314.5 -84.5zM699 220q96 0 165 47t108 129t45 189l-2 5h-654v-31q0 -102 35.5 -178.5t110 -118.5t192.5 -42z" />
    <glyph glyph-name="florin" unicode="&#x192;" horiz-adv-x="797" 
d="M118 -437q-32 0 -64.5 4t-72.5 13l15 221q21 -6 47.5 -9.5t46.5 -3.5q60 0 92 45t32 127v917h-160v205h160v120q0 182 106.5 280.5t291.5 98.5q40 0 78.5 -5t84.5 -16l-25 -217q-22 4 -46.5 7t-49.5 3q-73 0 -110 -39t-37 -112v-120h207v-205h-207l-1 -917
q0 -190 -101 -293.5t-287 -103.5z" />
    <glyph glyph-name="Ohorn" unicode="&#x1a0;" horiz-adv-x="1446" 
d="M723 -21q-147 0 -268 55t-208.5 154.5t-134.5 234t-47 294.5v22q0 159 47 293.5t134 234.5t208 155t268 55q148 0 270 -55t210 -155t135.5 -234.5t47.5 -293.5v-22q0 -160 -47.5 -294.5t-135.5 -234t-209.5 -154.5t-269.5 -55zM723 206q124 0 206 64t123.5 179t41.5 268
v24q0 151 -42 265.5t-124.5 178.5t-205.5 64q-122 0 -203 -63.5t-121.5 -177.5t-40.5 -267v-24q0 -153 40.5 -268t122 -179t203.5 -64zM1066 1150v159q95 0 128.5 65.5t32.5 195.5h232q0 -133 -42.5 -227t-130 -143.5t-220.5 -49.5z" />
    <glyph glyph-name="ohorn" unicode="&#x1a1;" horiz-adv-x="1202" 
d="M579 -21q-160 0 -275 70t-176 194.5t-61 286.5v21q0 161 61 285.5t175.5 195t273.5 70.5q161 0 275 -70.5t175 -194.5t61 -286v-21q0 -162 -61 -286.5t-175 -194.5t-273 -70zM579 203q76 0 124 41t71 114.5t23 171.5v21q0 96 -23 169.5t-71.5 115t-125.5 41.5
q-75 0 -124 -41.5t-71.5 -115t-22.5 -169.5v-21q0 -98 22.5 -172t71.5 -114.5t126 -40.5zM848 809v140q62 0 94.5 29.5t45 83t12.5 123.5h198q0 -110 -34.5 -195t-111 -133t-204.5 -48z" />
    <glyph glyph-name="Uhorn" unicode="&#x1af;" horiz-adv-x="1774" 
d="M777 -21q-174 0 -305.5 59.5t-204.5 174t-73 277.5v760l-155 30v176h603v-176l-155 -30v-760q0 -96 35 -160t100 -95.5t155 -31.5q91 0 156.5 31.5t100.5 95.5t35 160v760l-155 30v176h449v-966q0 -163 -74 -277.5t-206 -174t-306 -59.5zM1331 1021l5 185q113 -3 149 65
t36 221h234v-5q3 -229 -93 -345.5t-331 -120.5z" />
    <glyph glyph-name="uhorn" unicode="&#x1b0;" horiz-adv-x="1390" 
d="M522 -21q-171 0 -268.5 108.5t-97.5 337.5v451l-119 30v176h119h292v-659q0 -116 40.5 -166.5t122.5 -50.5q65 0 115 25.5t82 72.5v572l-129 30v176h129h292v-877l130 -30v-175h-386l-20 137q-51 -76 -128 -117t-174 -41zM1050 809v140q62 0 94.5 29.5t45 83t12.5 123.5
h198q0 -110 -34.5 -195t-111 -133t-204.5 -48z" />
    <glyph glyph-name="uni01F0" unicode="&#x1f0;" horiz-adv-x="600" 
d="M105 -437q-41 0 -74.5 4t-69.5 13l15 221q22 -6 46.5 -9.5t51.5 -3.5q57 0 89 45t32 127v916l-156 30v176h447v-1122q0 -191 -100.5 -294t-280.5 -103zM694 1560v-26l-254 -243h-216l-253 246v23h228l134 -144l137 144h224z" />
    <glyph glyph-name="Aringacute" unicode="&#x1fa;" horiz-adv-x="1512" 
d="M41 0v175l104 15l463 1266h299l460 -1266l104 -15v-175h-496v175l101 18l-64 200h-512l-64 -200l101 -18v-175h-496zM569 608h374l-170 499l-14 44h-6l-15 -47zM759 1341q-99 0 -165.5 59t-66.5 151q0 90 67 151.5t165 61.5q97 0 162.5 -61.5t65.5 -151.5
q0 -92 -65.5 -151t-162.5 -59zM759 1458q40 0 65 25.5t25 67.5q0 41 -24 67.5t-66 26.5q-41 0 -67.5 -26.5t-26.5 -67.5t27 -67t67 -26zM658 1819l126 212h252l2 -6l-202 -206h-170h-8z" />
    <glyph glyph-name="aringacute" unicode="&#x1fb;" horiz-adv-x="1154" 
d="M425 -21q-161 0 -256 86.5t-95 235.5q0 102 55.5 179t164 121t267.5 44h143v80q0 78 -45.5 126.5t-136.5 48.5q-47 0 -84.5 -11.5t-67.5 -32.5l-23 -143h-210l-4 281q85 48 184 78t221 30q212 0 335 -98.5t123 -281.5v-446q0 -22 0.5 -43.5t3.5 -41.5l113 -16v-175h-362
q-11 28 -22 60t-16 64q-52 -66 -122.5 -105.5t-165.5 -39.5zM503 195q61 0 116 27.5t85 72.5v171h-144q-96 0 -145.5 -44t-49.5 -106q0 -58 36.5 -89.5t101.5 -31.5zM548 1047q-99 0 -165.5 59t-66.5 151q0 90 67 151.5t165 61.5q97 0 162.5 -61.5t65.5 -151.5
q0 -92 -65.5 -151t-162.5 -59zM548 1165q40 0 65 25.5t25 66.5q0 42 -24 68t-66 26q-41 0 -67.5 -26t-26.5 -68q0 -41 27 -66.5t67 -25.5zM447 1525l126 212h252l2 -6l-202 -206h-170h-8z" />
    <glyph glyph-name="AEacute" unicode="&#x1fc;" horiz-adv-x="2092" 
d="M66 0v175l139 20l700 1261h1036v-369h-224l-12 141h-379l16 -366h516v-227h-507l18 -408h398l13 141h223v-368h-1075v175l150 28l-6 151h-448l-87 -165l86 -14v-175h-557zM740 582h322l-24 554l-5 1l-10 -21zM978 1569l199 273h309l2 -6l-276 -267h-226h-8z" />
    <glyph glyph-name="aeacute" unicode="&#x1fd;" horiz-adv-x="1720" 
d="M448 -21q-178 0 -276 87.5t-98 237.5q0 101 55.5 178.5t164 121t267.5 43.5h144v78q0 78 -46 126.5t-136 48.5q-47 0 -84.5 -11.5t-68.5 -32.5l-22 -143h-211l-3 281q85 48 184 78t221 30q110 0 195 -34t138 -104q43 46 92.5 76.5t107.5 46t122 15.5q142 0 243.5 -59.5
t156 -169.5t54.5 -261v-158h-650l-2 -6q4 -111 67 -178t189 -67q89 0 150.5 20.5t139.5 60.5l77 -184q-62 -48 -169 -84.5t-233 -36.5q-251 0 -390 165q-72 -80 -165 -122.5t-214 -42.5zM504 195q43 0 85 15.5t77 42.5t57 62q-10 39 -14 75t-4 71v7h-144q-96 0 -146 -43.5
t-50 -105.5q0 -55 36.5 -89.5t102.5 -34.5zM999 644h363v28q0 94 -45 149.5t-131 55.5q-55 0 -95.5 -28t-64.5 -79t-29 -121zM699 1287l199 273h309l2 -6l-276 -267h-226h-8z" />
    <glyph glyph-name="Oslashacute" unicode="&#x1fe;" horiz-adv-x="1446" 
d="M723 -21q-147 0 -268 55t-208.5 154.5t-134.5 234t-47 294.5v22q0 159 47 293.5t134 234.5t208 155t268 55q148 0 270 -55t210 -155t135.5 -234.5t47.5 -293.5v-22q0 -160 -47.5 -294.5t-135.5 -234t-209.5 -154.5t-269.5 -55zM723 206q124 0 206 64t123.5 179t41.5 268
v24q0 151 -42 265.5t-124.5 178.5t-205.5 64q-122 0 -203 -63.5t-121.5 -177.5t-40.5 -267v-24q0 -153 40.5 -268t122 -179t203.5 -64zM164 -85l940 1613h179l-940 -1613h-179zM549 1569l199 273h309l2 -6l-276 -267h-226h-8z" />
    <glyph glyph-name="oslashacute" unicode="&#x1ff;" horiz-adv-x="1155" 
d="M579 -21q-160 0 -275 70t-176 194.5t-61 286.5v21q0 161 61 285.5t175.5 195t273.5 70.5q161 0 275 -70.5t175 -194.5t61 -286v-21q0 -162 -61 -286.5t-175 -194.5t-273 -70zM579 203q76 0 124 41t71 114.5t23 171.5v21q0 96 -23 169.5t-71.5 115t-125.5 41.5
q-75 0 -124 -41.5t-71.5 -115t-22.5 -169.5v-21q0 -98 22.5 -172t71.5 -114.5t126 -40.5zM165 -137l663 1356h162l-663 -1356h-162zM403 1287l199 273h309l2 -6l-276 -267h-226h-8z" />
    <glyph glyph-name="uni0218" unicode="&#x218;" horiz-adv-x="1247" 
d="M650 -21q-161 0 -293 36t-260 125v352h226l31 -207q45 -38 124 -61.5t172 -23.5q79 0 133.5 22t83 62.5t28.5 95.5q0 52 -25.5 92.5t-84 74t-158.5 64.5q-173 51 -286.5 111.5t-170 145t-56.5 203.5q0 118 65.5 208.5t181.5 142.5t268 54q168 2 297.5 -40t223.5 -117
v-328h-219l-38 200q-38 24 -102.5 42t-146.5 18q-70 0 -123.5 -21t-84.5 -61t-31 -97q0 -49 27 -85.5t90.5 -69t175.5 -69.5q241 -67 365.5 -177t124.5 -289q0 -124 -67 -214.5t-188 -139.5t-283 -49zM581 -532l-135 89q32 49 48.5 98.5t16.5 122.5v94h246v-81
q0 -95 -49.5 -180t-126.5 -143z" />
    <glyph glyph-name="uni0219" unicode="&#x219;" horiz-adv-x="1034" 
d="M527 -21q-121 0 -225.5 23t-200.5 66l-3 306h203l39 -156q34 -17 74.5 -27t92.5 -10q98 0 138 32t40 80q0 45 -42.5 79.5t-169.5 60.5q-192 40 -283 124t-91 215q0 90 45.5 164t139 119t239.5 45q122 0 223.5 -23.5t170.5 -61.5l3 -296h-202l-31 142q-27 20 -63.5 30
t-82.5 10q-77 0 -118 -31t-41 -80q0 -28 14.5 -52t57.5 -45t125 -40q201 -46 293 -122.5t92 -214.5q0 -151 -109.5 -244t-327.5 -93zM474 -532l-135 89q32 49 48.5 98.5t16.5 122.5v94h246v-81q0 -95 -49.5 -180t-126.5 -143z" />
    <glyph glyph-name="uni021A" unicode="&#x21a;" horiz-adv-x="1389" 
d="M391 0v175l156 30v1026h-265l-16 -174h-221v399h1299v-399h-222l-16 174h-267v-1026l157 -30v-175h-605zM652 -532l-135 89q32 49 48.5 98.5t16.5 122.5v94h246v-81q0 -95 -49.5 -180t-126.5 -143z" />
    <glyph glyph-name="uni021B" unicode="&#x21b;" horiz-adv-x="735" 
d="M488 -21q-151 0 -232.5 83t-81.5 263v552h-149v205h149v265h291v-265h199v-205h-199v-551q0 -63 26.5 -90t72.5 -27q24 0 52 3.5t48 7.5l25 -211q-45 -13 -97.5 -21.5t-103.5 -8.5zM330 -532l-135 89q32 49 48.5 98.5t16.5 122.5v94h246v-81q0 -95 -49.5 -180
t-126.5 -143z" />
    <glyph glyph-name="uni0237" unicode="&#x237;" horiz-adv-x="600" 
d="M105 -437q-41 0 -74.5 4t-69.5 13l15 221q22 -6 46.5 -9.5t51.5 -3.5q57 0 89 45t32 127v916l-156 30v176h447v-1122q0 -191 -100.5 -294t-280.5 -103z" />
    <glyph glyph-name="uni0259" unicode="&#x259;" horiz-adv-x="1119" 
d="M554 -19q-147 0 -250 59.5t-157.5 169t-54.5 259.5v159h648v3.5v2.5q-5 71 -35.5 126.5t-85 87t-130.5 31.5q-83 0 -151 -20t-142 -61l-80 180q66 53 173 89.5t238 36.5q156 0 271.5 -69t179 -189t63.5 -274v-40q0 -162 -60 -286.5t-169.5 -194.5t-257.5 -70zM552 205
q54 0 93 28t62.5 78.5t31.5 118.5l-3 5h-357v-26q0 -63 19 -108.5t57.5 -70.5t96.5 -25z" />
    <glyph glyph-name="uni02BC" unicode="&#x2bc;" horiz-adv-x="471" 
d="M203 978l-144 79q39 69 60 143.5t21 168.5v191h245v-191q0 -67 -24.5 -139.5t-65.5 -138.5t-92 -113z" />
    <glyph glyph-name="circumflex" unicode="&#x2c6;" horiz-adv-x="803" 
d="M40 1291v26l255 243h215l253 -246v-23h-228l-133 144l-137 -144h-225z" />
    <glyph glyph-name="caron" unicode="&#x2c7;" horiz-adv-x="803" 
d="M763 1560v-26l-254 -243h-216l-253 246v23h228l134 -144l137 144h224z" />
    <glyph glyph-name="uni02C9" unicode="&#x2c9;" horiz-adv-x="811" 
d="M40 1312v176h731v-176h-731z" />
    <glyph glyph-name="breve" unicode="&#x2d8;" horiz-adv-x="774" 
d="M387 1263q-161 0 -256 81.5t-91 209.5l2 6h198q0 -58 35.5 -96t111.5 -38q75 0 110 37t35 97h200l2 -6q2 -128 -92 -209.5t-255 -81.5z" />
    <glyph glyph-name="dotaccent" unicode="&#x2d9;" horiz-adv-x="382" 
d="M40 1311v249h302v-249h-302z" />
    <glyph glyph-name="ring" unicode="&#x2da;" horiz-adv-x="545" 
d="M275 1228q-100 0 -167.5 60t-67.5 154q0 93 68 156t167 63q97 0 163.5 -63t66.5 -156q0 -94 -66.5 -154t-163.5 -60zM275 1345q41 0 66.5 27t25.5 70q0 44 -25.5 71.5t-66.5 27.5q-42 0 -69.5 -27.5t-27.5 -71.5q0 -43 27.5 -70t69.5 -27z" />
    <glyph glyph-name="ogonek" unicode="&#x2db;" horiz-adv-x="469" 
d="M294 -424q-113 0 -183.5 57.5t-70.5 160.5q0 75 53.5 146.5t179.5 119.5l125 -60q-73 -45 -106 -85t-33 -85q0 -38 21 -57t66 -19q24 0 44 4.5t40 11.5l35 -154q-35 -17 -76 -28.5t-95 -11.5z" />
    <glyph glyph-name="tilde" unicode="&#x2dc;" horiz-adv-x="829" 
d="M191 1283l-151 40q0 67 31.5 124t83.5 92t113 35q48 0 100 -24t99.5 -48.5t80.5 -24.5q41 1 65.5 31.5t24.5 77.5l151 -42q0 -69 -31.5 -125.5t-83.5 -90t-114 -33.5q-52 0 -104 24t-97 48.5t-79 24.5q-41 0 -65 -32t-24 -77z" />
    <glyph glyph-name="hungarumlaut" unicode="&#x2dd;" horiz-adv-x="931" 
d="M386 1287l-2 5l240 268h277l2 -6l-293 -267h-224zM47 1287h-7l199 273h260l2 -5l-240 -268h-214z" />
    <glyph glyph-name="uni02F3" unicode="&#x2f3;" horiz-adv-x="538" 
d="M271 -522q-100 0 -167.5 60t-67.5 154q0 93 68 155.5t167 62.5q97 0 163.5 -63t66.5 -155q0 -94 -66.5 -154t-163.5 -60zM271 -405q41 0 66.5 26.5t25.5 70.5t-25.5 71.5t-66.5 27.5q-42 0 -69.5 -27.5t-27.5 -71.5q0 -43 27.5 -70t69.5 -27z" />
    <glyph glyph-name="gravecomb" unicode="&#x300;" 
d="M550 1287h-8h-226l-276 267l2 6h309z" />
    <glyph glyph-name="acutecomb" unicode="&#x301;" 
d="M40 1287l199 273h309l2 -6l-276 -267h-226h-8z" />
    <glyph glyph-name="uni0302" unicode="&#x302;" 
d="M40 1291v26l255 243h215l253 -246v-23h-228l-133 144l-137 -144h-225z" />
    <glyph glyph-name="tildecomb" unicode="&#x303;" 
d="M191 1283l-151 40q0 67 31.5 124t83.5 92t113 35q48 0 100 -24t99.5 -48.5t80.5 -24.5q41 1 65.5 31.5t24.5 77.5l151 -42q0 -69 -31.5 -125.5t-83.5 -90t-114 -33.5q-52 0 -104 24t-97 48.5t-79 24.5q-41 0 -65 -32t-24 -77z" />
    <glyph glyph-name="uni0304" unicode="&#x304;" 
d="M40 1312v176h731v-176h-731z" />
    <glyph glyph-name="uni0306" unicode="&#x306;" 
d="M387 1263q-161 0 -256 81.5t-91 209.5l2 6h198q0 -58 35.5 -96t111.5 -38q75 0 110 37t35 97h200l2 -6q2 -128 -92 -209.5t-255 -81.5z" />
    <glyph glyph-name="uni0307" unicode="&#x307;" 
d="M40 1311v249h302v-249h-302z" />
    <glyph glyph-name="uni0308" unicode="&#x308;" 
d="M491 1311v249h281v-249h-281zM40 1311v249h281v-249h-281z" />
    <glyph glyph-name="hookabovecomb" unicode="&#x309;" 
d="M62 1254l-15 136q73 3 105 18t32 48q0 35 -38 50.5t-104 15.5l7 133q185 0 283.5 -51t98.5 -141q0 -64 -43.5 -100t-106.5 -45l-1 -64h-218z" />
    <glyph glyph-name="uni030A" unicode="&#x30a;" 
d="M275 1228q-100 0 -167.5 60t-67.5 154q0 93 68 156t167 63q97 0 163.5 -63t66.5 -156q0 -94 -66.5 -154t-163.5 -60zM275 1345q41 0 66.5 27t25.5 70q0 44 -25.5 71.5t-66.5 27.5q-42 0 -69.5 -27.5t-27.5 -71.5q0 -43 27.5 -70t69.5 -27z" />
    <glyph glyph-name="uni030B" unicode="&#x30b;" 
d="M386 1287l-2 5l240 268h277l2 -6l-293 -267h-224zM47 1287h-7l199 273h260l2 -5l-240 -268h-214z" />
    <glyph glyph-name="uni030C" unicode="&#x30c;" 
d="M763 1560v-26l-254 -243h-216l-253 246v23h228l134 -144l137 144h224z" />
    <glyph glyph-name="uni030F" unicode="&#x30f;" 
d="M556 1287h-223l-293 267l2 6h276l240 -268zM896 1287h-215l-240 268l2 5h260l200 -273h-7z" />
    <glyph glyph-name="uni0312" unicode="&#x312;" 
d="M216 1683l135 -90q-32 -48 -48.5 -97.5t-16.5 -122.5v-94h-246v80q0 96 49.5 180.5t126.5 143.5z" />
    <glyph glyph-name="uni031B" unicode="&#x31b;" 
d="M40 809v140q62 0 94.5 29.5t45 83t12.5 123.5h198q0 -110 -34.5 -195t-111 -133t-204.5 -48z" />
    <glyph glyph-name="dotbelowcomb" unicode="&#x323;" 
d="M40 -409v249h302v-249h-302z" />
    <glyph glyph-name="uni0325" unicode="&#x325;" 
d="M275 -522q-100 0 -167.5 60t-67.5 154q0 93 68 155.5t167 62.5q97 0 163.5 -63t66.5 -155q0 -94 -66.5 -154t-163.5 -60zM275 -405q41 0 66.5 26.5t25.5 70.5t-25.5 71.5t-66.5 27.5q-42 0 -69.5 -27.5t-27.5 -71.5q0 -43 27.5 -70t69.5 -27z" />
    <glyph glyph-name="uni0326.1" unicode="&#x326;" 
d="M175 -532l-135 89q32 49 48.5 98.5t16.5 122.5v94h246v-81q0 -95 -49.5 -180t-126.5 -143z" />
    <glyph glyph-name="uni0327" unicode="&#x327;" 
d="M62 -459l-7 160q60 0 95.5 19.5t35.5 59.5q0 43 -35 59.5t-111 20.5l34 158h215l-13 -74q67 -11 112 -50.5t45 -117.5q0 -107 -97 -171t-274 -64z" />
    <glyph glyph-name="uni0328" unicode="&#x328;" 
d="M294 -424q-113 0 -183.5 57.5t-70.5 160.5q0 75 53.5 146.5t179.5 119.5l125 -60q-73 -45 -106 -85t-33 -85q0 -38 21 -57t66 -19q24 0 44 4.5t40 11.5l35 -154q-35 -17 -76 -28.5t-95 -11.5z" />
    <glyph glyph-name="uni0335" unicode="&#x335;" 
d="M40 667v155h659v-155h-659z" />
    <glyph glyph-name="uni0336" unicode="&#x336;" 
d="M40 779v151h1479v-151h-1479z" />
    <glyph glyph-name="uni0337" unicode="&#x337;" 
d="M40 572v195l565 187v-195z" />
    <glyph glyph-name="uni0338" unicode="&#x338;" 
d="M40 -141l663 1356h162l-663 -1356h-162z" />
    <glyph glyph-name="tonos" unicode="&#x384;" horiz-adv-x="514" 
d="M131 1262l73 358h277l-205 -358h-145z" />
    <glyph glyph-name="dieresistonos" unicode="&#x385;" horiz-adv-x="873" 
d="M354 1394l36 326h279l-180 -326h-135zM40 1217v236h260v-236h-260zM573 1217v236h260v-236h-260z" />
    <glyph glyph-name="Alphatonos" unicode="&#x386;" horiz-adv-x="1512" 
d="M41 0v175l104 15l463 1266h299l460 -1266l104 -15v-175h-496v175l101 18l-64 200h-512l-64 -200l101 -18v-175h-496zM569 608h374l-170 499l-14 44h-6l-15 -47zM192 1262l73 358h277l-205 -358h-145z" />
    <glyph glyph-name="anoteleia" unicode="&#x387;" horiz-adv-x="553" 
d="M146 571v256h291v-256h-291z" />
    <glyph glyph-name="Epsilontonos" unicode="&#x388;" horiz-adv-x="1564" 
d="M312 0v175l155 30v1045l-155 30v176h1130v-393h-224l-13 168h-446v-366h493v-225h-493v-416h470l13 174h222v-398h-1152zM-7 1262l73 358h277l-205 -358h-145z" />
    <glyph glyph-name="Etatonos" unicode="&#x389;" horiz-adv-x="1870" 
d="M326 0v175l155 30v1045l-155 30v176h603v-176l-156 -30v-420h594v420l-156 30v176h156h291h156v-176l-156 -30v-1045l156 -30v-175h-603v175l156 30v400h-594v-400l156 -30v-175h-603zM-7 1262l73 358h277l-205 -358h-145z" />
    <glyph glyph-name="Iotatonos" unicode="&#x38a;" horiz-adv-x="987" 
d="M329 0v175l155 30v1045l-155 30v176h602v-176l-155 -30v-1045l155 -30v-175h-602zM-7 1262l73 358h277l-205 -358h-145z" />
    <glyph glyph-name="Omicrontonos" unicode="&#x38c;" horiz-adv-x="1479" 
d="M756 -21q-147 0 -268 55t-208.5 154.5t-134.5 234t-47 294.5v22q0 159 47 293.5t134 234.5t208 155t268 55q148 0 270 -55t210 -155t135.5 -234.5t47.5 -293.5v-22q0 -160 -47.5 -294.5t-135.5 -234t-209.5 -154.5t-269.5 -55zM756 206q124 0 206 64t123.5 179t41.5 268
v24q0 151 -42 265.5t-124.5 178.5t-205.5 64q-122 0 -203 -63.5t-121.5 -177.5t-40.5 -267v-24q0 -153 40.5 -268t122 -179t203.5 -64zM-4 1262l73 358h277l-205 -358h-145z" />
    <glyph glyph-name="Upsilontonos" unicode="&#x38e;" horiz-adv-x="1780" 
d="M724 0v175l156 30v294l-432 761l-140 20v176h581v-176l-119 -17l242 -465l22 -47l6 1l22 44l269 467l-160 17v176h570v-176l-144 -20l-426 -738v-317l156 -30v-175h-603zM-9 1262l73 358h277l-205 -358h-145z" />
    <glyph glyph-name="Omegatonos" unicode="&#x38f;" horiz-adv-x="1426" 
d="M199 0v227h257q-89 61 -156.5 149.5t-105 194.5t-37.5 220v45q0 188 75.5 332.5t209.5 226.5t310 82t310.5 -82t210.5 -226.5t76 -332.5v-45q0 -114 -38 -220t-104.5 -194t-154.5 -150h262v-227h-505v245q68 23 116.5 89t74.5 178t26 272v47q0 136 -32 229.5t-93.5 141
t-148.5 47.5q-85 0 -146 -47.5t-93 -141t-32 -229.5v-47q0 -162 26 -274t76 -177.5t120 -87.5v-245h-504zM6 1262l73 358h277l-205 -358h-145z" />
    <glyph glyph-name="iotadieresistonos" unicode="&#x390;" horiz-adv-x="705" 
d="M501 -21q-157 0 -240.5 85.5t-83.5 260.5v551l-156 30v176h448v-761q0 -65 22 -90t69 -25q29 0 46 3.5t51 14.5l30 -210q-47 -20 -89 -27.5t-97 -7.5zM258 1394l36 326h279l-180 -326h-135zM-56 1217v236h260v-236h-260zM477 1217v236h260v-236h-260z" />
    <glyph glyph-name="Alpha" unicode="&#x391;" horiz-adv-x="1512" 
d="M41 0v175l104 15l463 1266h299l460 -1266l104 -15v-175h-496v175l101 18l-64 200h-512l-64 -200l101 -18v-175h-496zM569 608h374l-170 499l-14 44h-6l-15 -47z" />
    <glyph glyph-name="Beta" unicode="&#x392;" horiz-adv-x="1344" 
d="M56 0v175l155 30v1045l-155 30v176h155h492q257 0 401 -100t144 -299q0 -101 -53.5 -180.5t-155.5 -119.5q87 -19 145.5 -67t87.5 -116.5t29 -149.5q0 -209 -138 -316.5t-391 -107.5h-716zM503 224h269q116 0 177 50.5t61 149.5q0 72 -23 121t-70.5 74t-122.5 25h-291
v-420zM503 846h210q117 0 180 48t63 140q0 101 -63.5 149t-189.5 48h-200v-385z" />
    <glyph glyph-name="Gamma" unicode="&#x393;" horiz-adv-x="1223" 
d="M65 0v175l155 30v1045l-155 30v176h1104v-369h-224l-12 144h-421v-1026l156 -30v-175h-603z" />
    <glyph glyph-name="uni0394" unicode="&#x394;" horiz-adv-x="1460" 
d="M12 0l583 1456h299l573 -1456h-1455zM402 224h676l-302 805l-30 81h-6l-33 -86z" />
    <glyph glyph-name="uni0394" unicode="&#x2206;" horiz-adv-x="1460" 
d="M12 0l583 1456h299l573 -1456h-1455zM402 224h676l-302 805l-30 81h-6l-33 -86z" />
    <glyph glyph-name="Epsilon" unicode="&#x395;" horiz-adv-x="1308" 
d="M56 0v175l155 30v1045l-155 30v176h1130v-393h-224l-13 168h-446v-366h493v-225h-493v-416h470l13 174h222v-398h-1152z" />
    <glyph glyph-name="Zeta" unicode="&#x396;" horiz-adv-x="1226" 
d="M74 0v192l710 1039h-443l-23 -186h-223l12 411h1036v-186l-713 -1046h507l24 186h222l-18 -410h-1091z" />
    <glyph glyph-name="Eta" unicode="&#x397;" horiz-adv-x="1600" 
d="M56 0v175l155 30v1045l-155 30v176h603v-176l-156 -30v-420h594v420l-156 30v176h156h291h156v-176l-156 -30v-1045l156 -30v-175h-603v175l156 30v400h-594v-400l156 -30v-175h-603z" />
    <glyph glyph-name="Theta" unicode="&#x398;" horiz-adv-x="1468" 
d="M740 -21q-148 0 -270.5 55.5t-212 155.5t-138.5 234.5t-49 292.5v22q0 158 49 292t138 234t211.5 156t269.5 56t271.5 -56t217 -156t143 -234t50.5 -292v-22q0 -158 -50.5 -292.5t-143 -234.5t-216.5 -155.5t-270 -55.5zM740 205q123 0 210.5 64t133.5 179.5t46 268.5v24
q0 151 -47 266t-134 179t-211 64t-207.5 -64t-126 -178t-42.5 -267v-24q0 -153 42.5 -268.5t126.5 -179.5t209 -64zM512 617v216h466v-216h-466z" />
    <glyph glyph-name="Iota" unicode="&#x399;" horiz-adv-x="722" 
d="M56 0v175l155 30v1045l-155 30v176h602v-176l-155 -30v-1045l155 -30v-175h-602z" />
    <glyph glyph-name="Kappa" unicode="&#x39a;" horiz-adv-x="1545" 
d="M442 357l-151 173l713 735l2 3l-144 12v176h599v-176l-137 -27zM56 0v175l155 30v1045l-155 30v176h595v-176l-148 -30v-1045l148 -30v-175h-595zM894 0v175l136 12h1l-370 510l193 193l516 -690l143 -25v-175h-619z" />
    <glyph glyph-name="Lambda" unicode="&#x39b;" horiz-adv-x="1467" 
d="M37 0v175l125 16l429 1265h299l429 -1265l125 -16v-175h-521v175l98 19l-243 827l-34 115h-6l-36 -121l-243 -821l99 -19v-175h-521z" />
    <glyph glyph-name="Mu" unicode="&#x39c;" horiz-adv-x="2066" 
d="M56 0v175l155 30v1045l-155 30v176h155h432l397 -1015h6l384 1015h588v-176l-156 -30v-1045l156 -30v-175h-603v175l163 30v279l5 657l-6 1l-435 -1122h-221l-445 1113l-6 -1l17 -618v-309l172 -30v-175h-603z" />
    <glyph glyph-name="Nu" unicode="&#x39d;" horiz-adv-x="1604" 
d="M56 0v175l155 30v1045l-155 30v176h155h296l634 -1010l6 1v803l-186 30v176h447h156v-176l-156 -30v-1250h-282l-648 1000l-6 -1v-794l187 -30v-175h-603z" />
    <glyph glyph-name="Xi" unicode="&#x39e;" horiz-adv-x="1245" 
d="M63 0v368h223l11 -144h662l12 144h223v-368h-1131zM313 632v217h630v-217h-630zM85 1087v369h1069v-369h-224l-12 144h-598l-11 -144h-224z" />
    <glyph glyph-name="Omicron" unicode="&#x39f;" horiz-adv-x="1446" 
d="M723 -21q-147 0 -268 55t-208.5 154.5t-134.5 234t-47 294.5v22q0 159 47 293.5t134 234.5t208 155t268 55q148 0 270 -55t210 -155t135.5 -234.5t47.5 -293.5v-22q0 -160 -47.5 -294.5t-135.5 -234t-209.5 -154.5t-269.5 -55zM723 206q124 0 206 64t123.5 179t41.5 268
v24q0 151 -42 265.5t-124.5 178.5t-205.5 64q-122 0 -203 -63.5t-121.5 -177.5t-40.5 -267v-24q0 -153 40.5 -268t122 -179t203.5 -64z" />
    <glyph glyph-name="Pi" unicode="&#x3a0;" horiz-adv-x="1602" 
d="M65 0v175l155 30v1045l-155 30v176h1488v-176l-155 -30v-1045l155 -30v-175h-602v175l155 30v1026h-594v-1026l156 -30v-175h-603z" />
    <glyph glyph-name="Rho" unicode="&#x3a1;" horiz-adv-x="1325" 
d="M56 0v175l155 30v1045l-155 30v176h155h538q167 0 288 -58.5t186 -163t65 -243.5t-65 -243.5t-186 -162t-288 -57.5h-246v-323l156 -30v-175h-603zM503 753h246q122 0 184.5 66.5t62.5 169.5q0 105 -62.5 173.5t-184.5 68.5h-246v-478z" />
    <glyph glyph-name="Sigma" unicode="&#x3a3;" horiz-adv-x="1178" 
d="M70 0v152l442 581l-442 572v151h1043v-369h-223l-12 144h-404h-14l361 -490v-17l-363 -499h4h443l12 143h223v-368h-1070z" />
    <glyph glyph-name="Tau" unicode="&#x3a4;" horiz-adv-x="1389" 
d="M391 0v175l156 30v1026h-265l-16 -174h-221v399h1299v-399h-222l-16 174h-267v-1026l157 -30v-175h-605z" />
    <glyph glyph-name="Upsilon" unicode="&#x3a5;" horiz-adv-x="1508" 
d="M452 0v175l156 30v294l-432 761l-140 20v176h581v-176l-119 -17l242 -465l22 -47l6 1l22 44l269 467l-160 17v176h570v-176l-144 -20l-426 -738v-317l156 -30v-175h-603z" />
    <glyph glyph-name="Phi" unicode="&#x3a6;" horiz-adv-x="1507" 
d="M455 0v168l155 30v63v2q-165 5 -290 62t-195 158t-70 235q0 138 70.5 241.5t195.5 163.5t289 64v1v69l-155 30v169h602v-169l-155 -30v-69v-1q164 -5 288 -64t194 -162.5t70 -240.5q0 -134 -70 -235.5t-194 -159t-288 -62.5v-1v-64l155 -30v-168h-602zM605 490l5 2v466
l-5 2q-80 -1 -139.5 -30.5t-92 -83t-32.5 -128.5q0 -70 32.5 -121t91.5 -78.5t140 -28.5zM907 490q79 1 137.5 28.5t91 79t32.5 122.5q0 75 -32 128t-90.5 82t-138.5 30l-5 -2v-466z" />
    <glyph glyph-name="Chi" unicode="&#x3a7;" horiz-adv-x="1438" 
d="M36 0v175l127 24l412 522l-388 534l-118 25v176h569v-176l-139 -13l250 -350l250 350l-136 13v176h561v-176l-129 -25l-373 -508l418 -547l139 -25v-175h-583v175l125 12l-270 370l-276 -370l122 -12v-175h-561z" />
    <glyph glyph-name="Psi" unicode="&#x3a8;" horiz-adv-x="1733" 
d="M581 0v175l155 30v177q-167 15 -288 89.5t-187 203t-66 304.5v271l-140 30v176h431v-477q0 -105 29 -181t83.5 -121t131.5 -57l6 2v628l-140 30v176h572v-176l-140 -30v-629l6 -1q77 10 129.5 54t79 121t26.5 184v477h433v-176l-141 -30v-271q0 -173 -65 -300.5
t-184.5 -203t-283.5 -92.5v-178l155 -30v-175h-602z" />
    <glyph glyph-name="uni03A9" unicode="&#x3a9;" horiz-adv-x="1346" 
d="M119 0v227h257q-89 61 -156.5 149.5t-105 194.5t-37.5 220v45q0 188 75.5 332.5t209.5 226.5t310 82t310.5 -82t210.5 -226.5t76 -332.5v-45q0 -114 -38 -220t-104.5 -194t-154.5 -150h262v-227h-505v245q68 23 116.5 89t74.5 178t26 272v47q0 136 -32 229.5t-93.5 141
t-148.5 47.5q-85 0 -146 -47.5t-93 -141t-32 -229.5v-47q0 -162 26 -274t76 -177.5t120 -87.5v-245h-504z" />
    <glyph glyph-name="uni03A9" unicode="&#x2126;" horiz-adv-x="1346" 
d="M119 0v227h257q-89 61 -156.5 149.5t-105 194.5t-37.5 220v45q0 188 75.5 332.5t209.5 226.5t310 82t310.5 -82t210.5 -226.5t76 -332.5v-45q0 -114 -38 -220t-104.5 -194t-154.5 -150h262v-227h-505v245q68 23 116.5 89t74.5 178t26 272v47q0 136 -32 229.5t-93.5 141
t-148.5 47.5q-85 0 -146 -47.5t-93 -141t-32 -229.5v-47q0 -162 26 -274t76 -177.5t120 -87.5v-245h-504z" />
    <glyph glyph-name="Iotadieresis" unicode="&#x3aa;" horiz-adv-x="722" 
d="M56 0v175l155 30v1045l-155 30v176h602v-176l-155 -30v-1045l155 -30v-175h-602zM442 1593v249h281v-249h-281zM-9 1593v249h281v-249h-281z" />
    <glyph glyph-name="Upsilondieresis" unicode="&#x3ab;" horiz-adv-x="1508" 
d="M452 0v175l156 30v294l-432 761l-140 20v176h581v-176l-119 -17l242 -465l22 -47l6 1l22 44l269 467l-160 17v176h570v-176l-144 -20l-426 -738v-317l156 -30v-175h-603zM839 1593v249h281v-249h-281zM388 1593v249h281v-249h-281z" />
    <glyph glyph-name="alphatonos" unicode="&#x3ac;" horiz-adv-x="1215" 
d="M510 -21q-128 0 -220.5 66.5t-142 186t-49.5 279.5v21q0 171 49.5 299t142 199.5t220.5 71.5q93 0 159 -38.5t113 -109.5l22 127h253v-736q0 -75 19 -105t52 -30q6 0 12 1t9 3l25 -209q-33 -15 -63.5 -20.5t-63.5 -5.5q-90 0 -154 40.5t-96 123.5q-48 -80 -117.5 -122
t-169.5 -42zM595 203q59 0 100.5 26t69.5 75v465q-19 35 -43.5 59t-55.5 36.5t-67 12.5q-73 0 -119 -43.5t-67.5 -121t-21.5 -180.5v-21q0 -143 47.5 -225.5t156.5 -82.5zM497 1262l73 358h277l-205 -358h-145z" />
    <glyph glyph-name="epsilontonos" unicode="&#x3ad;" horiz-adv-x="1107" 
d="M579 -20q-142 0 -253 39.5t-175 112.5t-64 174q0 183 205 251q-88 36 -137 97.5t-49 138.5q0 97 59.5 166t165.5 105.5t246 36.5q136 0 241.5 -41t165.5 -113.5t56 -169.5l-2 -6h-281q0 36 -24.5 62.5t-65 41t-90.5 14.5q-89 0 -134 -37t-45 -86q0 -56 46 -87.5
t133 -31.5h187v-189h-187q-96 0 -147.5 -35t-51.5 -97q0 -56 52.5 -95.5t148.5 -39.5q87 0 141 37t54 92h282l2 -6q4 -108 -60.5 -182.5t-175 -113t-243.5 -38.5zM484 1262l73 358h277l-205 -358h-145z" />
    <glyph glyph-name="etatonos" unicode="&#x3ae;" horiz-adv-x="1246" 
d="M815 -415v1077q0 116 -41.5 165.5t-123.5 49.5q-63 0 -111.5 -26.5t-80.5 -73.5v-777h-292v779q0 45 -17.5 63t-52.5 18q-19 0 -31 -2.5t-37 -8.5l-30 198q38 21 99 34.5t122 13.5q93 0 151.5 -36t74.5 -105q2 -5 3.5 -11.5t2.5 -11.5q54 82 133 126.5t176 44.5
q164 0 255.5 -104t91.5 -335v-1078h-292zM534 1262l73 358h277l-205 -358h-145z" />
    <glyph glyph-name="iotatonos" unicode="&#x3af;" horiz-adv-x="705" 
d="M501 -21q-157 0 -240.5 85.5t-83.5 260.5v551l-156 30v176h448v-761q0 -65 22 -90t69 -25q29 0 46 3.5t51 14.5l30 -210q-47 -20 -89 -27.5t-97 -7.5zM253 1262l73 358h277l-205 -358h-145z" />
    <glyph glyph-name="upsilondieresistonos" unicode="&#x3b0;" horiz-adv-x="1206" 
d="M613 -21q-201 0 -313.5 109.5t-112.5 330.5v366q0 45 -18 63t-54 18q-16 0 -34 -4t-33 -7l-30 198q38 20 99.5 34t122.5 14q114 0 176.5 -58t62.5 -176l-1 -463q0 -106 34.5 -153.5t94.5 -47.5q65 0 113.5 48t76 130.5t27.5 184.5q-1 127 -28.5 256t-73.5 260h278
q34 -70 60 -150.5t40.5 -172t14.5 -193.5q0 -174 -56 -306.5t-167.5 -206.5t-278.5 -74zM505 1394l36 326h279l-180 -326h-135zM191 1217v236h260v-236h-260zM724 1217v236h260v-236h-260z" />
    <glyph glyph-name="alpha" unicode="&#x3b1;" horiz-adv-x="1215" 
d="M510 -21q-128 0 -220.5 66.5t-142 186t-49.5 279.5v21q0 171 49.5 299t142 199.5t220.5 71.5q93 0 159 -38.5t113 -109.5l22 127h253v-736q0 -75 19 -105t52 -30q6 0 12 1t9 3l25 -209q-33 -15 -63.5 -20.5t-63.5 -5.5q-90 0 -154 40.5t-96 123.5q-48 -80 -117.5 -122
t-169.5 -42zM595 203q59 0 100.5 26t69.5 75v465q-19 35 -43.5 59t-55.5 36.5t-67 12.5q-73 0 -119 -43.5t-67.5 -121t-21.5 -180.5v-21q0 -143 47.5 -225.5t156.5 -82.5z" />
    <glyph glyph-name="beta" unicode="&#x3b2;" horiz-adv-x="1199" 
d="M126 -403v1452q0 125 63.5 221.5t172.5 151.5t247 55q135 0 237.5 -49t161 -137t58.5 -207q0 -98 -48 -179t-133 -130q127 -44 193 -133.5t66 -231.5q0 -135 -53.5 -231.5t-152 -148t-234.5 -51.5q-78 0 -151.5 18.5t-134.5 56.5v-457h-292zM622 203q108 0 169.5 60.5
t61.5 166.5q0 64 -25.5 114.5t-73 79.5t-115.5 29h-96v206h50q94 0 138 51t44 141q0 59 -20.5 104t-59.5 71t-94 26t-96 -26t-64 -71.5t-23 -105.5v-785q42 -30 95 -45.5t109 -15.5z" />
    <glyph glyph-name="gamma" unicode="&#x3b3;" horiz-adv-x="1113" 
d="M416 -417v473l-234 730q-12 41 -33 55.5t-59 14.5q-12 0 -19.5 -1t-21.5 -3l-23 221q34 10 75 15t77 5q70 0 110.5 -13t64.5 -47.5t45 -99.5l161 -530l12 -61h6l11 61l126 482l-109 21v176h491v-176l-91 -14l-297 -878v-431h-292z" />
    <glyph glyph-name="delta" unicode="&#x3b4;" horiz-adv-x="1156" 
d="M584 -20q-160 0 -275.5 68t-178 187.5t-62.5 274.5v20q0 110 40.5 201.5t110 154.5t156.5 86l4 11q-89 44 -138 111.5t-49 159.5q0 99 50.5 169.5t144 109t221.5 38.5q82 0 156 -20.5t159 -62.5l-44 -185q-36 14 -77 26.5t-85 20t-88 7.5q-76 0 -118 -27.5t-42 -75.5
q0 -34 32.5 -69.5t123.5 -68.5q157 -55 261.5 -136t157.5 -190t53 -248v-20q0 -159 -62.5 -281t-177.5 -191.5t-273 -69.5zM584 203q73 0 122.5 43t74.5 117.5t25 170.5v20q0 73 -28 142t-78 118t-116 63q-73 0 -123 -42.5t-76 -115.5t-26 -165v-20q0 -96 25 -170.5
t75.5 -117.5t124.5 -43z" />
    <glyph glyph-name="epsilon" unicode="&#x3b5;" horiz-adv-x="1107" 
d="M579 -20q-142 0 -253 39.5t-175 112.5t-64 174q0 183 205 251q-88 36 -137 97.5t-49 138.5q0 97 59.5 166t165.5 105.5t246 36.5q136 0 241.5 -41t165.5 -113.5t56 -169.5l-2 -6h-281q0 36 -24.5 62.5t-65 41t-90.5 14.5q-89 0 -134 -37t-45 -86q0 -56 46 -87.5
t133 -31.5h187v-189h-187q-96 0 -147.5 -35t-51.5 -97q0 -56 52.5 -95.5t148.5 -39.5q87 0 141 37t54 92h282l2 -6q4 -108 -60.5 -182.5t-175 -113t-243.5 -38.5z" />
    <glyph glyph-name="zeta" unicode="&#x3b6;" horiz-adv-x="1025" 
d="M704 -388l-148 109q34 36 54 66.5t29.5 57t9.5 48.5q0 33 -25.5 56.5t-87.5 39.5l-74 19q-181 47 -263 138t-82 256q0 92 29.5 182.5t89.5 189t152 211.5l205 242l-2 5h-516v224h893v-161l-360 -427q-72 -86 -116.5 -155t-64.5 -134.5t-20 -142.5q0 -99 38 -143.5
t123 -66.5l78 -24q104 -31 168.5 -61t94 -73.5t28.5 -115.5q0 -59 -28.5 -119.5t-80.5 -116.5t-124 -104z" />
    <glyph glyph-name="eta" unicode="&#x3b7;" horiz-adv-x="1246" 
d="M815 -415v1077q0 116 -41.5 165.5t-123.5 49.5q-63 0 -111.5 -26.5t-80.5 -73.5v-777h-292v779q0 45 -17.5 63t-52.5 18q-19 0 -31 -2.5t-37 -8.5l-30 198q38 21 99 34.5t122 13.5q93 0 151.5 -36t74.5 -105q2 -5 3.5 -11.5t2.5 -11.5q54 82 133 126.5t176 44.5
q164 0 255.5 -104t91.5 -335v-1078h-292z" />
    <glyph glyph-name="theta" unicode="&#x3b8;" horiz-adv-x="1182" 
d="M607 -21q-225 0 -357.5 148.5t-132.5 433.5v332q0 286 132 435t356 149t357 -149t133 -435v-332q0 -285 -132 -433.5t-356 -148.5zM607 202q96 0 146 76.5t50 245.5v97h-395v-97q0 -169 50.5 -245.5t148.5 -76.5zM408 840h395v93q0 167 -51 243.5t-147 76.5t-146.5 -76.5
t-50.5 -243.5v-93z" />
    <glyph glyph-name="iota" unicode="&#x3b9;" horiz-adv-x="705" 
d="M501 -21q-157 0 -240.5 85.5t-83.5 260.5v551l-156 30v176h448v-761q0 -65 22 -90t69 -25q29 0 46 3.5t51 14.5l30 -210q-47 -20 -89 -27.5t-97 -7.5z" />
    <glyph glyph-name="kappa" unicode="&#x3ba;" horiz-adv-x="1303" 
d="M461 293l-133 176l438 418l3 3l-102 18v174h551v-176l-139 -33zM51 0v175l146 33v664l-157 34v176h449v-874l138 -33v-175h-576zM913 0l-331 476l193 211l343 -481l125 -31v-175h-330z" />
    <glyph glyph-name="lambda" unicode="&#x3bb;" horiz-adv-x="1123" 
d="M1006 -18q-81 0 -139 23t-97 71.5t-65 125.5l-173 481h-6l-12 -60l-193 -623h-314l382 1056l-71 158q-20 45 -52.5 68t-76.5 23q-18 0 -31 -0.5t-28 -2.5l-6 208q30 9 78.5 14.5t89.5 5.5q104 0 167 -42.5t97 -125.5l419 -1048q21 -51 44.5 -78t60.5 -27h18.5t15.5 1
l2 -221q-22 -3 -49 -5t-61 -2z" />
    <glyph glyph-name="uni03BC" unicode="&#x3bc;" horiz-adv-x="1347" 
d="M211 -416v1292l-156 30v176h156h291v-620q0 -149 44.5 -202.5t134.5 -53.5q76 0 126 27.5t78 80.5v562l-156 30v176h447v-877l141 -30v-175h-412l-6 88q-41 -54 -98 -81.5t-130 -27.5q-49 0 -91.5 10.5t-77.5 32.5v-438h-291z" />
    <glyph glyph-name="nu" unicode="&#x3bd;" horiz-adv-x="1167" 
d="M466 0l-327 888l-117 18v176h525v-175l-114 -20l163 -491l25 -84h6l28 84l179 490l-133 21v175h524v-176l-120 -20l-342 -886h-297z" />
    <glyph glyph-name="xi" unicode="&#x3be;" horiz-adv-x="1088" 
d="M792 -394l-149 110q48 50 70 92t22 83q0 34 -24.5 56.5t-86.5 36.5l-36 10q-164 33 -271.5 85t-160.5 140.5t-53 228.5q0 143 76 237.5t227 142.5q-105 38 -161.5 107.5t-56.5 171.5q0 168 130.5 269t354.5 101q75 0 152.5 -13.5t143.5 -35.5l-46 -218
q-75 20 -126.5 28.5t-95.5 8.5q-111 0 -166 -40t-55 -105q0 -73 55 -115t171 -42h151v-232h-143q-105 0 -176 -29t-107.5 -85.5t-36.5 -139.5q0 -102 65.5 -159t176.5 -82l97 -22q99 -23 163.5 -54.5t96.5 -77.5t32 -114q-1 -63 -34.5 -127t-86.5 -120.5t-112 -96.5z" />
    <glyph glyph-name="omicron" unicode="&#x3bf;" horiz-adv-x="1148" 
d="M579 -21q-160 0 -275 70t-176 194.5t-61 286.5v21q0 161 61 285.5t175.5 195t273.5 70.5q161 0 275 -70.5t175 -194.5t61 -286v-21q0 -162 -61 -286.5t-175 -194.5t-273 -70zM579 203q76 0 124 41t71 114.5t23 171.5v21q0 96 -23 169.5t-71.5 115t-125.5 41.5
q-75 0 -124 -41.5t-71.5 -115t-22.5 -169.5v-21q0 -98 22.5 -172t71.5 -114.5t126 -40.5z" />
    <glyph glyph-name="pi" unicode="&#x3c0;" horiz-adv-x="1305" 
d="M1102 -20q-160 0 -244 85.5t-84 260.5v542h-273v-868h-292v868h-151v214h1145v-214h-137v-546q0 -65 23 -90t74 -25q23 0 45 4.5t46 13.5l30 -210q-44 -19 -88.5 -27t-93.5 -8z" />
    <glyph glyph-name="rho" unicode="&#x3c1;" horiz-adv-x="1176" 
d="M117 -416v993q0 157 60 275t169 184t256 66q158 0 267 -71t166 -199t57 -300v-21q0 -160 -49.5 -280t-141.5 -186t-222 -66q-89 0 -155.5 30.5t-114.5 88.5v-514h-292zM587 203q114 0 163.5 83t49.5 225v21q0 105 -21.5 182.5t-66.5 120t-115 42.5q-63 0 -105 -40
t-62.5 -111.5t-20.5 -166.5v-262q27 -46 72 -70t106 -24z" />
    <glyph glyph-name="uni03C2" unicode="&#x3c2;" horiz-adv-x="1071" 
d="M700 -374l-152 111q49 54 70.5 91.5t21.5 78.5q0 39 -26 61.5t-78 35.5q-233 59 -344 182.5t-111 338.5v30q0 159 59 282t170.5 194t269.5 71q134 0 233 -50.5t153.5 -143.5t51.5 -220l-2 -6h-265q0 85 -44 140t-132 55q-71 0 -116 -41.5t-66 -114t-21 -166.5v-30
q0 -86 26 -144.5t82 -96.5t144 -64q113 -34 179 -68t95 -79t29 -110q0 -63 -32.5 -126.5t-84 -118.5t-110.5 -92z" />
    <glyph glyph-name="sigma" unicode="&#x3c3;" horiz-adv-x="1241" 
d="M587 -21q-159 0 -273 70t-175 194t-61 287v21q0 156 61 275.5t175.5 187.5t273.5 68h574v-226h-262q81 -52 132.5 -140t51.5 -218v-21q0 -138 -60.5 -251t-172 -180t-264.5 -67zM584 203q73 0 119 40.5t68 114.5t22 172v21q0 90 -22 159t-68.5 107.5t-119.5 38.5
t-120 -39t-70 -108t-23 -158v-21q0 -99 22.5 -172.5t70 -114t121.5 -40.5z" />
    <glyph glyph-name="tau" unicode="&#x3c4;" horiz-adv-x="987" 
d="M657 -21q-157 0 -240.5 85.5t-83.5 260.5v534h-296l1 223h896v-223h-309v-538q0 -65 22.5 -90t72.5 -25q14 0 29.5 2.5t31.5 6.5t32 9l30 -210q-43 -19 -89 -27t-97 -8z" />
    <glyph glyph-name="upsilon" unicode="&#x3c5;" horiz-adv-x="1206" 
d="M613 -21q-201 0 -313.5 109.5t-112.5 330.5v366q0 45 -18 63t-54 18q-16 0 -34 -4t-33 -7l-30 198q38 20 99.5 34t122.5 14q114 0 176.5 -58t62.5 -176l-1 -463q0 -106 34.5 -153.5t94.5 -47.5q65 0 113.5 48t76 130.5t27.5 184.5q-1 127 -28.5 256t-73.5 260h278
q34 -70 60 -150.5t40.5 -172t14.5 -193.5q0 -174 -56 -306.5t-167.5 -206.5t-278.5 -74z" />
    <glyph glyph-name="phi" unicode="&#x3c6;" horiz-adv-x="1550" 
d="M646 -478v466q-194 23 -317 106t-181.5 209.5t-58.5 282.5q0 160 61.5 293.5t163.5 214.5l200 -152q-42 -46 -71.5 -101.5t-44.5 -119t-16 -135.5q0 -94 26 -168.5t83 -123.5t149 -67l6 2v569q0 83 42 150.5t119.5 107t183.5 39.5q154 0 268 -72.5t177 -195t63 -273.5
q0 -147 -59.5 -268t-183 -200t-318.5 -100v-464h-292zM944 223q92 16 150 62t85.5 115.5t27.5 156.5q-1 92 -27.5 162.5t-72.5 110.5t-107 40q-33 0 -47.5 -18.5t-14.5 -49.5v-577z" />
    <glyph glyph-name="chi" unicode="&#x3c7;" horiz-adv-x="1191" 
d="M32 0v175l101 16l292 352l-282 346l-101 17v176l290 -1l272 -380l151 200l-101 12v169h489v-176l-98 -17l-278 -341l293 -357l102 -16v-175h-285l-292 391l-158 -212l87 -11v-168h-482z" />
    <glyph glyph-name="psi" unicode="&#x3c8;" horiz-adv-x="1661" 
d="M727 -478v468q-253 34 -391 182t-138 418v196q0 44 -17.5 62.5t-55.5 18.5q-15 0 -32.5 -3.5t-33.5 -8.5l-30 199q38 20 99.5 34t122.5 14q115 0 177 -58t62 -176v-281q0 -157 61.5 -244.5t169.5 -111.5l6 2v849h292v-856l6 -2q95 16 155 66t89 127t29 175
q-2 117 -30.5 238t-77.5 252h271q39 -66 67.5 -142.5t45 -163.5t16.5 -184q0 -162 -60 -291.5t-186 -212t-325 -102.5v-464h-292z" />
    <glyph glyph-name="omega" unicode="&#x3c9;" horiz-adv-x="1694" 
d="M534 -21q-153 0 -248.5 72t-140 204t-44.5 311q0 102 19 193.5t52.5 172.5t78.5 150h278q-62 -130 -99 -259t-37 -257q0 -105 16 -187.5t51 -129t91 -46.5q70 0 113.5 68.5t43.5 218.5v346h307v-346q0 -150 43 -218.5t112 -68.5q57 0 92 47t51.5 129t16.5 187
q0 128 -37.5 257.5t-99.5 258.5h278q45 -70 79 -150.5t52.5 -172t18.5 -193.5q0 -180 -44.5 -311.5t-140 -203.5t-247.5 -72q-118 0 -198 51t-130 159q-53 -110 -132 -160t-195 -50z" />
    <glyph glyph-name="iotadieresis" unicode="&#x3ca;" horiz-adv-x="705" 
d="M501 -21q-157 0 -240.5 85.5t-83.5 260.5v551l-156 30v176h448v-761q0 -65 22 -90t69 -25q29 0 46 3.5t51 14.5l30 -210q-47 -20 -89 -27.5t-97 -7.5zM429 1311v249h281v-249h-281zM-22 1311v249h281v-249h-281z" />
    <glyph glyph-name="upsilondieresis" unicode="&#x3cb;" horiz-adv-x="1206" 
d="M613 -21q-201 0 -313.5 109.5t-112.5 330.5v366q0 45 -18 63t-54 18q-16 0 -34 -4t-33 -7l-30 198q38 20 99.5 34t122.5 14q114 0 176.5 -58t62.5 -176l-1 -463q0 -106 34.5 -153.5t94.5 -47.5q65 0 113.5 48t76 130.5t27.5 184.5q-1 127 -28.5 256t-73.5 260h278
q34 -70 60 -150.5t40.5 -172t14.5 -193.5q0 -174 -56 -306.5t-167.5 -206.5t-278.5 -74zM677 1311v249h281v-249h-281zM226 1311v249h281v-249h-281z" />
    <glyph glyph-name="omicrontonos" unicode="&#x3cc;" horiz-adv-x="1148" 
d="M579 -21q-160 0 -275 70t-176 194.5t-61 286.5v21q0 161 61 285.5t175.5 195t273.5 70.5q161 0 275 -70.5t175 -194.5t61 -286v-21q0 -162 -61 -286.5t-175 -194.5t-273 -70zM579 203q76 0 124 41t71 114.5t23 171.5v21q0 96 -23 169.5t-71.5 115t-125.5 41.5
q-75 0 -124 -41.5t-71.5 -115t-22.5 -169.5v-21q0 -98 22.5 -172t71.5 -114.5t126 -40.5zM487 1262l73 358h277l-205 -358h-145z" />
    <glyph glyph-name="upsilontonos" unicode="&#x3cd;" horiz-adv-x="1206" 
d="M613 -21q-201 0 -313.5 109.5t-112.5 330.5v366q0 45 -18 63t-54 18q-16 0 -34 -4t-33 -7l-30 198q38 20 99.5 34t122.5 14q114 0 176.5 -58t62.5 -176l-1 -463q0 -106 34.5 -153.5t94.5 -47.5q65 0 113.5 48t76 130.5t27.5 184.5q-1 127 -28.5 256t-73.5 260h278
q34 -70 60 -150.5t40.5 -172t14.5 -193.5q0 -174 -56 -306.5t-167.5 -206.5t-278.5 -74zM501 1262l73 358h277l-205 -358h-145z" />
    <glyph glyph-name="omegatonos" unicode="&#x3ce;" horiz-adv-x="1694" 
d="M534 -21q-153 0 -248.5 72t-140 204t-44.5 311q0 102 19 193.5t52.5 172.5t78.5 150h278q-62 -130 -99 -259t-37 -257q0 -105 16 -187.5t51 -129t91 -46.5q70 0 113.5 68.5t43.5 218.5v346h307v-346q0 -150 43 -218.5t112 -68.5q57 0 92 47t51.5 129t16.5 187
q0 128 -37.5 257.5t-99.5 258.5h278q45 -70 79 -150.5t52.5 -172t18.5 -193.5q0 -180 -44.5 -311.5t-140 -203.5t-247.5 -72q-118 0 -198 51t-130 159q-53 -110 -132 -160t-195 -50zM771 1262l73 358h277l-205 -358h-145z" />
    <glyph glyph-name="uni03D1" unicode="&#x3d1;" horiz-adv-x="1382" 
d="M706 -21q-177 0 -311.5 75t-210 206t-75.5 296v696l308 2v-698q0 -101 35 -178.5t99.5 -121t151.5 -43.5q127 0 201 85t80 235v6v6q-129 10 -231 66.5t-161 148.5t-59 208v103q0 124 49 215t136.5 141t201.5 50q171 0 271 -108.5t100 -297.5v-515q0 -174 -73 -304
t-204.5 -201.5t-307.5 -71.5zM978 761l6 2v335q0 65 -22 98t-63 33t-65 -33.5t-24 -97.5v-132q0 -55 20.5 -99.5t58 -72t89.5 -33.5z" />
    <glyph glyph-name="uni03D2" unicode="&#x3d2;" horiz-adv-x="1278" 
d="M502 0v492l-280 657q-21 51 -48.5 73t-68.5 22q-10 0 -22.5 -1t-22.5 -4l-23 222q29 11 56 15t62 4q80 0 138 -25.5t103 -84t85 -160.5l149 -385l18 -90h6l19 90l148 378q40 102 86 163t104.5 87.5t137.5 26.5q35 0 62 -4.5t55 -14.5l-25 -222q-10 3 -20.5 4t-20.5 1
q-43 0 -72 -24t-48 -71l-286 -672v-477h-292z" />
    <glyph glyph-name="uni03D6" unicode="&#x3d6;" horiz-adv-x="1803" 
d="M576 -21q-149 0 -242.5 72t-136.5 204t-43 311q0 86 13.5 164.5t38.5 150.5h-119v201h1670v-201h-128q24 -73 38 -151.5t14 -163.5q0 -180 -43.5 -311.5t-136 -203.5t-241.5 -72q-121 0 -205.5 53t-136.5 165q-56 -115 -139.5 -166.5t-202.5 -51.5zM596 203
q74 0 121.5 67t47.5 220v205h306v-205q0 -102 21 -165.5t59 -92.5t87 -29q55 0 88.5 45.5t49 127.5t15.5 190q-3 77 -17.5 156t-39.5 159h-833q-26 -79 -40 -158t-16 -157q0 -108 15 -190t48.5 -127.5t87.5 -45.5z" />
    <glyph glyph-name="uni0400" unicode="&#x400;" horiz-adv-x="1308" 
d="M56 0v175l155 30v1045l-155 30v176h1130v-393h-224l-13 168h-446v-366h493v-225h-493v-416h470l13 174h222v-398h-1152zM829 1569h-8h-226l-276 267l2 6h309z" />
    <glyph glyph-name="uni0401" unicode="&#x401;" horiz-adv-x="1308" 
d="M56 0v175l155 30v1045l-155 30v176h1130v-393h-224l-13 168h-446v-366h493v-225h-493v-416h470l13 174h222v-398h-1152zM739 1593v249h281v-249h-281zM288 1593v249h281v-249h-281z" />
    <glyph glyph-name="uni0402" unicode="&#x402;" horiz-adv-x="1602" 
d="M1023 -12l-5 2l-1 205q96 0 149.5 32.5t74.5 85.5t21 115q-1 112 -66 175t-191 63q-60 0 -119.5 -10t-116.5 -28v-423l128 -30v-175h-576v175l155 30v1026h-195l-11 -144h-223v369h1243v-369h-224l-12 144h-285v-379q60 19 121.5 30.5t123.5 11.5q248 0 393.5 -116.5
t145.5 -336.5q0 -132 -56 -235.5t-173.5 -161.5t-300.5 -56z" />
    <glyph glyph-name="uni0403" unicode="&#x403;" horiz-adv-x="1223" 
d="M65 0v175l155 30v1045l-155 30v176h1104v-369h-224l-12 144h-421v-1026l156 -30v-175h-603zM483 1569l199 273h309l2 -6l-276 -267h-226h-8z" />
    <glyph glyph-name="uni0404" unicode="&#x404;" horiz-adv-x="1300" 
d="M690 -20q-199 0 -350.5 92.5t-237 256t-85.5 375.5v49q0 212 85 375.5t236.5 256.5t351.5 93q164 0 299.5 -61.5t224.5 -162.5v-288h-217l-30 194q-43 43 -108 68t-149 25q-116 0 -200 -50.5t-132.5 -141t-59.5 -211.5l3 -6h529v-226h-529l-3 -6q10 -122 58 -214
t131 -143t197 -51q80 0 149.5 25t113.5 68l30 194h217v-288q-88 -102 -224 -162.5t-300 -60.5z" />
    <glyph glyph-name="uni0405" unicode="&#x405;" horiz-adv-x="1247" 
d="M650 -21q-161 0 -293 36t-260 125v352h226l31 -207q45 -38 124 -61.5t172 -23.5q79 0 133.5 22t83 62.5t28.5 95.5q0 52 -25.5 92.5t-84 74t-158.5 64.5q-173 51 -286.5 111.5t-170 145t-56.5 203.5q0 118 65.5 208.5t181.5 142.5t268 54q168 2 297.5 -40t223.5 -117
v-328h-219l-38 200q-38 24 -102.5 42t-146.5 18q-70 0 -123.5 -21t-84.5 -61t-31 -97q0 -49 27 -85.5t90.5 -69t175.5 -69.5q241 -67 365.5 -177t124.5 -289q0 -124 -67 -214.5t-188 -139.5t-283 -49z" />
    <glyph glyph-name="uni0406" unicode="&#x406;" horiz-adv-x="713" 
d="M56 0v175l155 30v1045l-155 30v176h602v-176l-155 -30v-1045l155 -30v-175h-602z" />
    <glyph glyph-name="uni0407" unicode="&#x407;" horiz-adv-x="714" 
d="M56 0v175l155 30v1045l-155 30v176h602v-176l-155 -30v-1045l155 -30v-175h-602zM442 1593v249h281v-249h-281zM-9 1593v249h281v-249h-281z" />
    <glyph glyph-name="uni0408" unicode="&#x408;" horiz-adv-x="1192" 
d="M553 -21q-152 0 -266.5 51.5t-180 157.5t-71.5 269l2 6h274q8 -143 64 -199.5t149 -56.5q60 0 105.5 26t72 77.5t26.5 126.5v813l-196 30v176h643v-176l-156 -30v-813q0 -140 -54 -243t-158 -159t-254 -56z" />
    <glyph glyph-name="uni0409" unicode="&#x409;" horiz-adv-x="2161" 
d="M48 0v224h40q75 0 125 29t79.5 94.5t42 175t12.5 270.5v457l-156 30v176h1281v-176l-155 -30v-303h250q167 0 289.5 -60.5t189.5 -167t67 -245.5q0 -140 -67 -246.5t-189.5 -167t-289.5 -60.5h-542v1231h-386v-438q0 -211 -33.5 -361.5t-102 -246t-171 -140.5t-241.5 -45
h-43zM1317 224h250q122 0 188.5 72.5t66.5 177.5q0 70 -30 126t-87 89t-138 33h-250v-498z" />
    <glyph glyph-name="uni040A" unicode="&#x40a;" horiz-adv-x="2232" 
d="M56 0v175l155 30v1045l-155 30v176h602v-176l-155 -30v-409h592v409l-155 30v176h155h292h155v-176l-155 -30v-321h250q168 0 290.5 -58.5t189.5 -163t67 -241.5t-67.5 -242t-190 -164.5t-289.5 -59.5h-697v175l155 30v411h-592v-411l155 -30v-175h-602zM1387 228h250
q123 0 189.5 68.5t66.5 169.5q0 67 -29.5 121t-87 85.5t-139.5 31.5h-250v-476z" />
    <glyph glyph-name="uni040B" unicode="&#x40b;" horiz-adv-x="1742" 
d="M316 0v175l156 30v1026h-186l-11 -144h-223v369h1213v-369h-223l-12 144h-266v-323q47 9 104 14.5t123 5.5q267 0 414 -117t147 -359v-246l155 -30v-176h-602v176l155 30v246q0 141 -64 196t-205 55q-56 0 -115.5 -5.5t-111.5 -14.5v-478l155 -30v-175h-603z" />
    <glyph glyph-name="uni040C" unicode="&#x40c;" horiz-adv-x="1464" 
d="M56 0v175l155 30v1045l-155 30v176h595v-176l-148 -30v-389h131l273 393q87 122 161 169t165 47q56 0 100.5 -14t81.5 -37l-49 -219q-21 5 -38.5 8.5t-34.5 3.5q-43 0 -84.5 -26t-96.5 -97l-228 -312l403 -577l153 -25v-175h-577v175l83 12l-2 3l-270 406h-171v-391
l148 -30v-175h-595zM558 1569l199 273h309l2 -6l-276 -267h-226h-8z" />
    <glyph glyph-name="uni040D" unicode="&#x40d;" horiz-adv-x="1605" 
d="M69 0v175l156 30v1045l-156 30v176h156h291h156v-176l-156 -30v-674l6 -2l587 595v81l-155 30v176h155h293h155v-176l-155 -30v-1045l155 -30v-175h-603v175l155 30v658l-6 2l-587 -596v-64l156 -30v-175h-603zM988 1569h-8h-226l-276 267l2 6h309z" />
    <glyph glyph-name="uni040E" unicode="&#x40e;" horiz-adv-x="1407" 
d="M433 -21q-25 0 -56.5 2t-47.5 3l-2 223q11 -2 38 -3t41 -1q79 0 118.5 35t66.5 106l22 55l-418 860l-155 21v176h572v-176l-108 -17l199 -442l35 -90h6l198 529l-101 20v176h545v-176l-142 -19l-415 -985q-42 -95 -93 -161.5t-123.5 -101t-179.5 -34.5zM724 1545
q-161 0 -256 81.5t-91 209.5l2 6h198q0 -58 35.5 -96t111.5 -38q75 0 110 37t35 97h200l2 -6q2 -128 -92 -209.5t-255 -81.5z" />
    <glyph glyph-name="uni040F" unicode="&#x40f;" horiz-adv-x="1602" 
d="M675 -360v360h-610v175l155 30v1045l-155 30v176h447h155v-176l-155 -30v-1026h593v1026l-155 30v176h603v-176l-155 -30v-1045l155 -30v-175h-585v-360h-293z" />
    <glyph glyph-name="uni0410" unicode="&#x410;" horiz-adv-x="1512" 
d="M41 0v175l104 15l463 1266h299l460 -1266l104 -15v-175h-496v175l101 18l-64 200h-512l-64 -200l101 -18v-175h-496zM569 608h374l-170 499l-14 44h-6l-15 -47z" />
    <glyph glyph-name="uni0411" unicode="&#x411;" horiz-adv-x="1368" 
d="M64 0v175l155 30v1045l-155 30v176h1104v-369h-224l-12 144h-417v-314h250q169 0 291.5 -56t189 -157.5t66.5 -239.5q0 -139 -67 -243.5t-190 -162.5t-290 -58h-701zM515 224h250q123 0 189.5 68.5t66.5 173.5q0 100 -65.5 163t-190.5 63h-250v-468z" />
    <glyph glyph-name="uni0412" unicode="&#x412;" horiz-adv-x="1354" 
d="M56 0v175l155 30v1045l-155 30v176h155h492q257 0 401 -100t144 -299q0 -101 -53.5 -180.5t-155.5 -119.5q87 -19 145.5 -67t87.5 -116.5t29 -149.5q0 -209 -138 -316.5t-391 -107.5h-716zM503 224h269q116 0 177 50.5t61 149.5q0 72 -23 121t-70.5 74t-122.5 25h-291
v-420zM503 846h210q117 0 180 48t63 140q0 101 -63.5 149t-189.5 48h-200v-385z" />
    <glyph glyph-name="uni0413" unicode="&#x413;" horiz-adv-x="1223" 
d="M65 0v175l155 30v1045l-155 30v176h1104v-369h-224l-12 144h-421v-1026l156 -30v-175h-603z" />
    <glyph glyph-name="uni0414" unicode="&#x414;" horiz-adv-x="1575" 
d="M64 -358l-22 582h112q52 45 96 122.5t72.5 202t35.5 311.5l27 392l-142 28v176h1258v-176l-155 -30v-1026h172l-27 -582h-265v358h-893v-358h-269zM485 224h569v1007h-379l-24 -371q-6 -147 -27.5 -264.5t-56.5 -209.5t-82 -162z" />
    <glyph glyph-name="uni0415" unicode="&#x415;" horiz-adv-x="1308" 
d="M56 0v175l155 30v1045l-155 30v176h1130v-393h-224l-13 168h-446v-366h493v-225h-493v-416h470l13 174h222v-398h-1152z" />
    <glyph glyph-name="uni0416" unicode="&#x416;" horiz-adv-x="2154" 
d="M39 0v175l145 21l346 595l-185 298q-49 71 -85.5 97t-78.5 26q-18 0 -36 -3.5t-36 -8.5l-43 219q35 23 81.5 37t106.5 14q68 0 118 -20.5t93.5 -67.5t91.5 -128l226 -393h151v389l-156 30v176h603v-176l-156 -30v-389h155l222 393q67 122 134 169t169 47q60 0 105 -13.5
t82 -37.5l-42 -219q-17 5 -35 8.5t-37 3.5q-39 0 -79 -25t-84 -98l-185 -302l338 -591l151 -21v-175h-558v175l59 11l-2 3l-214 407h-179v-391l156 -30v-175h-603v175l156 30v391h-181l-218 -405l-2 -5l56 -11v-175h-550z" />
    <glyph glyph-name="uni0417" unicode="&#x417;" horiz-adv-x="1221" 
d="M592 -21q-146 0 -268.5 48t-195.5 141.5t-70 229.5l2 6h284q0 -56 30.5 -102t87.5 -72.5t134 -26.5q116 0 189.5 59.5t73.5 167.5q0 95 -62.5 149t-188.5 54h-177v219h177q117 0 173 52.5t56 140.5q0 94 -65.5 150.5t-196.5 56.5q-89 0 -154.5 -25.5t-104.5 -67.5
l-30 -181h-217v275q85 101 221.5 162.5t305.5 61.5q245 0 388.5 -105.5t143.5 -289.5q0 -116 -60 -202t-165 -132q120 -43 184 -129.5t64 -211.5q0 -133 -70.5 -229t-196.5 -147.5t-292 -51.5z" />
    <glyph glyph-name="uni0418" unicode="&#x418;" horiz-adv-x="1605" 
d="M69 0v175l156 30v1045l-156 30v176h156h291h156v-176l-156 -30v-674l6 -2l587 595v81l-155 30v176h155h293h155v-176l-155 -30v-1045l155 -30v-175h-603v175l155 30v658l-6 2l-587 -596v-64l156 -30v-175h-603z" />
    <glyph glyph-name="uni0419" unicode="&#x419;" horiz-adv-x="1605" 
d="M69 0v175l156 30v1045l-156 30v176h156h291h156v-176l-156 -30v-674l6 -2l587 595v81l-155 30v176h155h293h155v-176l-155 -30v-1045l155 -30v-175h-603v175l155 30v658l-6 2l-587 -596v-64l156 -30v-175h-603zM814 1545q-161 0 -256 81.5t-91 209.5l2 6h198
q0 -58 35.5 -96t111.5 -38q75 0 110 37t35 97h200l2 -6q2 -128 -92 -209.5t-255 -81.5z" />
    <glyph glyph-name="uni041A" unicode="&#x41a;" horiz-adv-x="1464" 
d="M56 0v175l155 30v1045l-155 30v176h595v-176l-148 -30v-389h131l273 393q87 122 161 169t165 47q56 0 100.5 -14t81.5 -37l-49 -219q-21 5 -38.5 8.5t-34.5 3.5q-43 0 -84.5 -26t-96.5 -97l-228 -312l403 -577l153 -25v-175h-577v175l83 12l-2 3l-270 406h-171v-391
l148 -30v-175h-595z" />
    <glyph glyph-name="uni041B" unicode="&#x41b;" horiz-adv-x="1526" 
d="M48 0v224h39q68 5 112.5 35t70 93.5t37 171t12.5 269.5l5 457l-153 30v176h1301v-176l-156 -30v-1045l156 -30v-175h-603v175l156 30v1026h-410l-4 -438q-2 -212 -32.5 -362.5t-91 -246t-151.5 -140t-216 -44.5h-72z" />
    <glyph glyph-name="uni041C" unicode="&#x41c;" horiz-adv-x="2066" 
d="M56 0v175l155 30v1045l-155 30v176h155h432l397 -1015h6l384 1015h588v-176l-156 -30v-1045l156 -30v-175h-603v175l163 30v279l5 657l-6 1l-435 -1122h-221l-445 1113l-6 -1l17 -618v-309l172 -30v-175h-603z" />
    <glyph glyph-name="uni041D" unicode="&#x41d;" horiz-adv-x="1600" 
d="M56 0v175l155 30v1045l-155 30v176h603v-176l-156 -30v-420h594v420l-156 30v176h156h291h156v-176l-156 -30v-1045l156 -30v-175h-603v175l156 30v400h-594v-400l156 -30v-175h-603z" />
    <glyph glyph-name="uni041E" unicode="&#x41e;" horiz-adv-x="1448" 
d="M723 -21q-147 0 -268 55t-208.5 154.5t-134.5 234t-47 294.5v22q0 159 47 293.5t134 234.5t208 155t268 55q148 0 270 -55t210 -155t135.5 -234.5t47.5 -293.5v-22q0 -160 -47.5 -294.5t-135.5 -234t-209.5 -154.5t-269.5 -55zM723 206q124 0 206 64t123.5 179t41.5 268
v24q0 151 -42 265.5t-124.5 178.5t-205.5 64q-122 0 -203 -63.5t-121.5 -177.5t-40.5 -267v-24q0 -153 40.5 -268t122 -179t203.5 -64z" />
    <glyph glyph-name="uni041F" unicode="&#x41f;" horiz-adv-x="1602" 
d="M65 0v175l155 30v1045l-155 30v176h1488v-176l-155 -30v-1045l155 -30v-175h-602v175l155 30v1026h-594v-1026l156 -30v-175h-603z" />
    <glyph glyph-name="uni0420" unicode="&#x420;" horiz-adv-x="1326" 
d="M56 0v175l155 30v1045l-155 30v176h155h538q167 0 288 -58.5t186 -163t65 -243.5t-65 -243.5t-186 -162t-288 -57.5h-246v-323l156 -30v-175h-603zM503 753h246q122 0 184.5 66.5t62.5 169.5q0 105 -62.5 173.5t-184.5 68.5h-246v-478z" />
    <glyph glyph-name="uni0421" unicode="&#x421;" horiz-adv-x="1333" 
d="M749 -21q-212 0 -369 88.5t-242.5 251t-85.5 384.5v49q0 212 82.5 375.5t235.5 256.5t364 93q148 0 277.5 -42t231.5 -128v-352h-217l-30 221q-33 24 -72 41t-84.5 26t-98.5 9q-124 0 -213 -61t-136.5 -172.5t-47.5 -264.5v-51q0 -153 50 -265t142 -173.5t218 -61.5
q63 0 126.5 14.5t115.5 37.5l30 205h217v-348q-85 -56 -212 -94.5t-282 -38.5z" />
    <glyph glyph-name="uni0422" unicode="&#x422;" horiz-adv-x="1389" 
d="M391 0v175l156 30v1026h-265l-16 -174h-221v399h1299v-399h-222l-16 174h-267v-1026l157 -30v-175h-605z" />
    <glyph glyph-name="uni0423" unicode="&#x423;" horiz-adv-x="1407" 
d="M433 -21q-25 0 -56.5 2t-47.5 3l-2 223q11 -2 38 -3t41 -1q79 0 118.5 35t66.5 106l22 55l-418 860l-155 21v176h572v-176l-108 -17l199 -442l35 -90h6l198 529l-101 20v176h545v-176l-142 -19l-415 -985q-42 -95 -93 -161.5t-123.5 -101t-179.5 -34.5z" />
    <glyph glyph-name="uni0424" unicode="&#x424;" horiz-adv-x="1644" 
d="M529 -86v162l156 30v86h-16q-178 0 -315 65.5t-214.5 184t-77.5 277.5q0 163 78 285t214.5 190t314.5 68h16v88l-156 30v162h603v-162l-156 -30v-88h12q178 0 315 -67.5t215 -189t78 -284.5q0 -159 -78 -278t-215.5 -185t-314.5 -66h-12v-86l156 -30v-162h-603zM669 393
h16v666h-16q-98 0 -170 -40t-111.5 -115.5t-39.5 -184.5q0 -105 39.5 -177.5t111.5 -110.5t170 -38zM976 393h14q97 0 169 38.5t111.5 112t39.5 177.5q0 110 -39.5 185.5t-111.5 115t-169 39.5l-14 -2v-666z" />
    <glyph glyph-name="uni0425" unicode="&#x425;" horiz-adv-x="1514" 
d="M36 0v175l127 24l412 522l-388 534l-118 25v176h569v-176l-139 -13l250 -350l250 350l-136 13v176h561v-176l-129 -25l-373 -508l418 -547l139 -25v-175h-583v175l125 12l-270 370l-276 -370l122 -12v-175h-561z" />
    <glyph glyph-name="uni0426" unicode="&#x426;" horiz-adv-x="1634" 
d="M1316 -351v351h-1251v175l155 30v1045l-155 30v176h602v-176l-155 -30v-1026h593v1026l-155 30v176h603v-176l-155 -30v-1027h204l-10 -574h-276z" />
    <glyph glyph-name="uni0427" unicode="&#x427;" horiz-adv-x="1553" 
d="M901 0v175l155 30v356q-70 -16 -140 -24.5t-155 -8.5q-268 0 -414.5 116t-146.5 359v247l-156 30v176h603v-176l-156 -30v-247q0 -142 64 -196t206 -54q72 0 148.5 8.5t146.5 24.5v464l-155 30v176h603v-176l-156 -30v-1045l156 -30v-175h-603z" />
    <glyph glyph-name="uni0428" unicode="&#x428;" horiz-adv-x="2114" 
d="M69 0v175l156 30v1045l-156 30v176h448h155v-176l-155 -30v-1026h412v1026l-156 30v176h602v-176l-155 -30v-1026h408v1026l-156 30v176h156h291h156v-176l-156 -30v-1045l156 -30v-175h-2006z" />
    <glyph glyph-name="uni0429" unicode="&#x429;" horiz-adv-x="2131" 
d="M1817 -350v350h-1748v175l156 30v1045l-156 30v176h603v-176l-155 -30v-1026h412v1026l-156 30v176h602v-176l-155 -30v-1026h408v1026l-156 30v176h603v-176l-156 -30v-1026h187l-17 -574h-272z" />
    <glyph glyph-name="uni042A" unicode="&#x42a;" horiz-adv-x="1799" 
d="M503 0v175l156 30v1026h-370l-11 -143h-223v368h1051v-176l-155 -30v-333h250q169 0 291 -56t189 -157.5t67 -239.5q0 -139 -67 -243.5t-190 -162.5t-290 -58h-698zM951 224h250q122 0 189 68.5t67 173.5q0 100 -66 163t-190 63h-250v-468z" />
    <glyph glyph-name="uni042B" unicode="&#x42b;" horiz-adv-x="1969" 
d="M67 0v175l156 30v1045l-156 30v176h604v-176l-156 -30v-333h250q169 0 291.5 -56t189 -157.5t66.5 -239.5q0 -139 -67 -243.5t-189.5 -162.5t-290.5 -58h-698zM515 224h250q123 0 189.5 68.5t66.5 173.5q0 100 -65.5 163t-190.5 63h-250v-468zM1312 0v175l155 30v1045
l-155 30v176h602v-176l-155 -30v-1045l155 -30v-175h-602z" />
    <glyph glyph-name="uni042C" unicode="&#x42c;" horiz-adv-x="1360" 
d="M67 0v175l156 30v1045l-156 30v176h604v-176l-156 -30v-333h250q169 0 291.5 -56t189 -157.5t66.5 -239.5q0 -139 -67 -243.5t-189.5 -162.5t-290.5 -58h-698zM515 224h250q123 0 189.5 68.5t66.5 173.5q0 100 -65.5 163t-190.5 63h-250v-468z" />
    <glyph glyph-name="uni042D" unicode="&#x42d;" horiz-adv-x="1268" 
d="M578 -20q-170 0 -306 60t-225 162v288h217l30 -193q38 -43 109.5 -68t159.5 -25q109 0 188 50t124.5 141t55.5 214l-2 5h-509v226h509l2 5q-10 123 -55.5 214.5t-125.5 142t-192 50.5q-91 0 -156.5 -24.5t-107.5 -68.5l-30 -193h-217v288q60 68 140 118t179 77.5
t212 27.5q195 0 342 -92t229 -255.5t82 -377.5v-49q0 -213 -83 -376t-230 -255t-340 -92z" />
    <glyph glyph-name="uni042E" unicode="&#x42e;" horiz-adv-x="1979" 
d="M1260 -22q-175 0 -313 77t-225 213.5t-111 316.5h-145v-380l156 -30v-175h-603v175l156 30v1045l-156 30v176h603v-176l-156 -30v-440h139q14 195 99.5 345t227.5 235.5t327 85.5q197 0 346.5 -96t233 -263t83.5 -379v-22q0 -213 -83.5 -380t-232.5 -262.5t-346 -95.5z
M1260 205q124 0 206 64t123.5 179t41.5 268v24q0 151 -42 265.5t-124.5 178.5t-205.5 64q-122 0 -203.5 -63.5t-121.5 -178t-40 -266.5v-24q0 -153 40.5 -268t122.5 -179t203 -64z" />
    <glyph glyph-name="uni042F" unicode="&#x42f;" horiz-adv-x="1377" 
d="M1334 175v-175h-603v175l156 29v343h-192l-136 -316q-54 -114 -133 -177t-187 -63q-51 0 -94.5 12.5t-78.5 36.5l38 220q36 -12 69 -12q43 0 78.5 24.5t74.5 91.5l112 237l2 4q-151 57 -226 155t-75 249q0 216 142 331.5t393 115.5h660v-176l-155 -30v-1045zM674 1231
q-121 0 -182.5 -60.5t-61.5 -173.5q0 -112 62 -174.5t182 -62.5h213v471h-213z" />
    <glyph glyph-name="uni0430" unicode="&#x430;" horiz-adv-x="1154" 
d="M425 -21q-161 0 -256 86.5t-95 235.5q0 102 55.5 179t164 121t267.5 44h143v80q0 78 -45.5 126.5t-136.5 48.5q-47 0 -84.5 -11.5t-67.5 -32.5l-23 -143h-210l-4 281q85 48 184 78t221 30q212 0 335 -98.5t123 -281.5v-446q0 -22 0.5 -43.5t3.5 -41.5l113 -16v-175h-362
q-11 28 -22 60t-16 64q-52 -66 -122.5 -105.5t-165.5 -39.5zM503 195q61 0 116 27.5t85 72.5v171h-144q-96 0 -145.5 -44t-49.5 -106q0 -58 36.5 -89.5t101.5 -31.5z" />
    <glyph glyph-name="uni0431" unicode="&#x431;" horiz-adv-x="1172" 
d="M600 -21q-160 0 -274.5 67t-175.5 185.5t-61 271.5v139q0 244 63 408t175.5 256.5t261.5 121.5q97 16 143.5 42.5t46.5 86.5h226l3 -6q2 -98 -24.5 -159t-75.5 -97t-116.5 -56.5t-145.5 -35.5q-99 -19 -162.5 -56.5t-98 -94.5t-47.5 -136l4 -5q55 49 130 80t166 31
q145 0 251 -64t163.5 -177.5t57.5 -262.5v-21q0 -153 -61.5 -270t-175.5 -182.5t-273 -65.5zM600 203q75 0 123.5 36.5t71.5 102.5t23 155v21q0 82 -23.5 145t-72 98.5t-124.5 35.5q-75 0 -123 -35.5t-71 -98.5t-23 -145v-15q0 -89 22.5 -157t71 -105.5t125.5 -37.5z" />
    <glyph glyph-name="uni0432" unicode="&#x432;" horiz-adv-x="1281" 
d="M91 0v175l156 30v671l-156 30v176h156h452q216 0 336.5 -75t120.5 -221q0 -80 -48 -139.5t-146 -91.5q129 -25 189.5 -91.5t60.5 -160.5q0 -148 -114.5 -225.5t-328.5 -77.5h-678zM538 222h230q77 0 114.5 28.5t37.5 85.5q0 55 -35 85t-116 30h-231v-229zM538 641h169
q82 1 119.5 28.5t37.5 80.5q0 109 -163 109h-163v-218z" />
    <glyph glyph-name="uni0433" unicode="&#x433;" horiz-adv-x="1088" 
d="M60 0v175l155 30v671l-155 30v176h948v-381h-183l-12 155h-306v-651l155 -30v-175h-602z" />
    <glyph glyph-name="uni0434" unicode="&#x434;" horiz-adv-x="1348" 
d="M71 -324l-22 550h94q49 51 81 99.5t51 104t28.5 125t11.5 162.5l4 159l-153 30v176h954h156v-176l-156 -30v-652h157l-20 -548h-272v324h-641v-324h-273zM477 225h353v624h-220l-3 -132q-4 -161 -39 -282.5t-91 -209.5z" />
    <glyph glyph-name="uni0435" unicode="&#x435;" horiz-adv-x="1078" 
d="M581 -21q-155 0 -271 68.5t-179.5 188.5t-63.5 274v40q0 161 60 285.5t169.5 196t258.5 70.5q147 0 247 -58t152 -167t52 -264v-159h-636l-2 -6q6 -71 35.5 -126.5t83.5 -87t131 -31.5q80 0 149.5 20.5t135.5 60.5l79 -180q-67 -54 -168.5 -89.5t-232.5 -35.5zM372 647
h361v26q0 66 -17.5 113.5t-56 73.5t-99.5 26q-58 0 -98 -30.5t-62.5 -83.5t-30.5 -120z" />
    <glyph glyph-name="uni0436" unicode="&#x436;" horiz-adv-x="1850" 
d="M40 0v175l148 22l229 383l-126 196q-24 37 -55 59t-69 22q-16 0 -26 -2.5t-36 -9.5l-49 202q39 25 78 38.5t95 13.5q98 0 165.5 -47.5t126.5 -141.5l144 -240h114v206l-125 30v176h542v-176l-126 -30v-206h117l144 240q58 94 125.5 141.5t165.5 47.5q56 0 95 -13.5
t79 -38.5l-49 -202q-26 7 -36.5 9.5t-26.5 2.5q-38 0 -69 -22t-54 -59l-126 -196l227 -383l149 -22v-175h-404l-207 405h-130v-200l126 -30v-175h-542v175l125 30v200h-127l-208 -405h-404z" />
    <glyph glyph-name="uni0437" unicode="&#x437;" horiz-adv-x="1062" 
d="M516 -20q-123 0 -225.5 38.5t-162.5 113t-56 182.5l1 6h283q0 -37 20.5 -66.5t58.5 -46.5t91 -17q86 0 126.5 39.5t40.5 98.5q0 68 -40 100t-123 32h-156v186h156q74 0 109 31.5t35 89.5q0 51 -34 86.5t-114 35.5q-45 0 -79.5 -14.5t-54 -41t-19.5 -62.5h-283l-2 6
q-4 97 51.5 169.5t154 113.5t222.5 41q208 0 328.5 -81.5t120.5 -227.5q0 -77 -44 -138.5t-122 -96.5q185 -66 185 -250q0 -102 -58.5 -175t-164.5 -112.5t-245 -39.5z" />
    <glyph glyph-name="uni0438" unicode="&#x438;" horiz-adv-x="1417" 
d="M85 0v175l156 30v671l-156 30v176h448h140v-176l-140 -30v-451l6 -1l352 658h292h155v-176l-155 -30v-671l155 -30v-175h-587v175l140 30v453l-6 1l-352 -659h-448z" />
    <glyph glyph-name="uni0439" unicode="&#x439;" horiz-adv-x="1417" 
d="M85 0v175l156 30v671l-156 30v176h448h140v-176l-140 -30v-451l6 -1l352 658h292h155v-176l-155 -30v-671l155 -30v-175h-587v175l140 30v453l-6 1l-352 -659h-448zM715 1263q-161 0 -256 81.5t-91 209.5l2 6h198q0 -58 35.5 -96t111.5 -38q75 0 110 37t35 97h200l2 -6
q2 -128 -92 -209.5t-255 -81.5z" />
    <glyph glyph-name="uni043A" unicode="&#x43a;" horiz-adv-x="1330" 
d="M91 0v175l156 30v671l-156 30v176h580v-176l-133 -30v-206h100l162 240q61 94 127 141.5t160 47.5q56 0 97 -14t80 -38l-49 -202q-28 7 -38.5 9.5t-25.5 2.5q-34 0 -66 -23t-56 -58l-140 -204l251 -373l147 -24v-175h-401l-236 405h-112v-200l133 -30v-175h-580z" />
    <glyph glyph-name="uni043B" unicode="&#x43b;" horiz-adv-x="1334" 
d="M77 0l-4 230l32 1q67 0 101 35t46.5 120t12.5 235v255l-156 30v176h999h156v-176l-156 -30v-671l156 -30v-175h-603v175l156 30v651h-260v-235q0 -320 -98.5 -470.5t-335.5 -150.5h-46z" />
    <glyph glyph-name="uni043C" unicode="&#x43c;" horiz-adv-x="1764" 
d="M91 0v175l156 30v671l-156 30v176h156h361l276 -742h6l278 742h366h155v-176l-155 -30v-671l155 -30v-175h-557v175l110 30v439l-6 1l-251 -645h-196l-245 633l-6 -1v-427l111 -30v-175h-558z" />
    <glyph glyph-name="uni043D" unicode="&#x43d;" horiz-adv-x="1415" 
d="M85 0v175l156 30v671l-156 30v176h573v-176l-126 -30v-232h356v232l-125 30v176h125h292h156v-176l-156 -30v-671l156 -30v-175h-573v175l125 30v215h-356v-215l126 -30v-175h-573z" />
    <glyph glyph-name="uni043E" unicode="&#x43e;" horiz-adv-x="1148" 
d="M579 -21q-160 0 -275 70t-176 194.5t-61 286.5v21q0 161 61 285.5t175.5 195t273.5 70.5q161 0 275 -70.5t175 -194.5t61 -286v-21q0 -162 -61 -286.5t-175 -194.5t-273 -70zM579 203q76 0 124 41t71 114.5t23 171.5v21q0 96 -23 169.5t-71.5 115t-125.5 41.5
q-75 0 -124 -41.5t-71.5 -115t-22.5 -169.5v-21q0 -98 22.5 -172t71.5 -114.5t126 -40.5z" />
    <glyph glyph-name="uni043F" unicode="&#x43f;" horiz-adv-x="1417" 
d="M85 0v175l156 30v671l-156 30v176h1253v-176l-155 -30v-671l155 -30v-175h-573v175l126 30v651h-359v-651l126 -30v-175h-573z" />
    <glyph glyph-name="uni0440" unicode="&#x440;" horiz-adv-x="1240" 
d="M56 -416v176l141 30v1086l-156 30v176h424l14 -126q48 70 116 108t162 38q131 0 224 -71.5t142.5 -199.5t49.5 -299v-21q0 -160 -49.5 -279.5t-143 -186t-225.5 -66.5q-87 0 -153.5 31.5t-113.5 92.5v-313l141 -30v-176h-573zM668 203q112 0 162.5 83t50.5 225v21
q0 103 -23 179.5t-70.5 120t-121.5 43.5q-60 0 -105.5 -27t-72.5 -77v-474q27 -46 72.5 -70t107.5 -24z" />
    <glyph glyph-name="uni0441" unicode="&#x441;" horiz-adv-x="1082" 
d="M572 -21q-156 0 -269.5 70t-174.5 193.5t-61 282.5v30q0 160 62 283t175 193.5t266 70.5q146 0 251.5 -45.5t171.5 -105.5l-2 -310h-220l-39 193q-24 24 -61 39t-75 15q-80 0 -132.5 -40t-78.5 -114t-26 -179v-30q0 -111 29 -182.5t77.5 -105.5t108.5 -34
q77 0 123.5 40.5t64.5 114.5h249l3 -6q-17 -115 -67.5 -199t-142 -129t-232.5 -45z" />
    <glyph glyph-name="uni0442" unicode="&#x442;" horiz-adv-x="1243" 
d="M316 0v175l155 30v654h-181l-11 -146h-224v369h1130v-369h-224l-12 146h-185v-654l155 -30v-175h-603z" />
    <glyph glyph-name="uni0443" unicode="&#x443;" horiz-adv-x="1285" 
d="M363 -437q-38 0 -80.5 6.5t-80.5 17.5l33 214q19 -4 42 -6t40 -2q63 0 109 33t67 95l24 67l-362 899l-133 19v176h574v-176l-132 -20l170 -477l21 -59h6l201 538l-129 18v176h535v-176l-122 -17l-413 -1050q-30 -75 -76.5 -137.5t-118 -100.5t-175.5 -38z" />
    <glyph glyph-name="uni0444" unicode="&#x444;" horiz-adv-x="1492" 
d="M451 -416v176l155 30v214q-30 -12 -64 -18.5t-74 -6.5q-125 0 -213 66.5t-134.5 186.5t-46.5 279v21q0 171 46.5 299t135.5 199.5t214 71.5q40 0 73 -7t63 -19v278l-155 30v176h447v-486q29 13 64 20.5t78 7.5q124 0 212.5 -71.5t135.5 -199.5t47 -299v-21
q0 -159 -46.5 -279t-135 -186.5t-211.5 -66.5q-43 0 -78 7t-66 19v-215l155 -30v-176h-602zM546 203q15 0 30 2t30 7v656q-13 4 -27.5 6.5t-30.5 2.5q-62 0 -102 -43t-60 -120.5t-20 -181.5v-21q0 -143 41.5 -225.5t138.5 -82.5zM963 203q92 0 136 83.5t44 224.5v21
q0 102 -20 179.5t-60.5 121.5t-104.5 44q-17 0 -32 -2.5t-28 -6.5v-656q13 -4 29 -6.5t36 -2.5z" />
    <glyph glyph-name="uni0445" unicode="&#x445;" horiz-adv-x="1319" 
d="M30 0v175l139 18l310 349l-293 347l-131 17v176h536v-168l-84 -13l157 -206l157 206l-93 13v168h517v-176l-121 -17l-277 -335l309 -361l133 -18v-175h-555v167l94 13l-167 207l-163 -208l92 -12v-167h-560z" />
    <glyph glyph-name="uni0446" unicode="&#x446;" horiz-adv-x="1387" 
d="M1020 -321v321h-970v175l156 30v671l-156 30v176h580v-176l-133 -30v-652h358v652l-133 30v176h581v-176l-155 -31v-652h163l-20 -544h-271z" />
    <glyph glyph-name="uni0447" unicode="&#x447;" horiz-adv-x="1375" 
d="M694 0v175l156 30v138q-37 -8 -76 -11.5t-78 -3.5q-156 0 -266 45t-168 137t-58 232v135l-155 30v175h447h125v-175l-125 -30v-135q0 -71 20 -112.5t64.5 -59t115.5 -17.5q41 0 78.5 4t75.5 12v307l-126 30v176h574v-176l-156 -30v-671l156 -30v-175h-604z" />
    <glyph glyph-name="uni0448" unicode="&#x448;" horiz-adv-x="1927" 
d="M85 0v175l156 30v671l-156 30v176h447h156v-176l-156 -30v-652h295v858h292v-858h295v652l-156 30v176h447h156v-176l-156 -30v-671l156 -30v-175h-1776z" />
    <glyph glyph-name="uni0449" unicode="&#x449;" horiz-adv-x="1942" 
d="M1581 -321v321h-1499v175l156 30v671l-156 30v176h156h291h156v-176l-156 -30v-652h295v858h292v-858h295v652l-156 30v176h603v-176l-156 -30v-652h170l-20 -545h-271z" />
    <glyph glyph-name="uni044A" unicode="&#x44a;" horiz-adv-x="1479" 
d="M308 0v175l157 30v651h-197l-11 -142h-224v368h879v-176l-155 -30v-143h202q221 0 345.5 -98.5t124.5 -262.5q0 -168 -125 -270t-345 -102h-651zM757 223h202q91 0 135 40.5t44 106.5q0 68 -44 110t-135 42h-202v-299z" />
    <glyph glyph-name="uni044B" unicode="&#x44b;" horiz-adv-x="1825" 
d="M539 223h203q90 0 134 40.5t44 106.5q0 68 -43.5 110t-134.5 42h-203v-299zM1229 0v175l141 30v671l-156 30v176h448v-877l140 -30v-175h-573zM742 733q220 0 344.5 -98.5t124.5 -262.5q0 -168 -125 -270t-344 -102h-651v175l156 30v671l-156 30v176h604v-176l-156 -30
v-143h203z" />
    <glyph glyph-name="uni044C" unicode="&#x44c;" horiz-adv-x="1254" 
d="M742 733q220 0 344.5 -98.5t124.5 -262.5q0 -168 -125 -270t-344 -102h-651v175l156 30v671l-156 30v176h604v-176l-156 -30v-143h203zM742 223q90 0 134 40.5t44 106.5q0 68 -43.5 110t-134.5 42h-203v-299h203z" />
    <glyph glyph-name="uni044D" unicode="&#x44d;" horiz-adv-x="1078" 
d="M510 -21q-126 0 -226.5 51t-158 138t-54.5 196l3 6h265q0 -51 21 -88t59 -58t91 -21q68 0 112 31t67 87.5t27 131.5l-3 5h-275v175h274l2 5q-6 70 -30 124.5t-69.5 84.5t-113.5 30q-46 0 -83.5 -12t-63.5 -32l-33 -150h-236l3 270q63 67 172.5 108t236.5 41
q164 0 280 -70.5t176.5 -193.5t60.5 -283v-30q0 -160 -59 -283t-171 -193t-274 -70z" />
    <glyph glyph-name="uni044E" unicode="&#x44e;" horiz-adv-x="1751" 
d="M1172 -21q-144 0 -252 57t-173 160.5t-82 241.5h-146v-233l140 -30v-175h-573v175l141 30v671l-156 30v176h448v-419h149q20 132 85.5 231t171 153.5t245.5 54.5q160 0 274.5 -70.5t175.5 -194.5t61 -286v-21q0 -162 -61 -286.5t-175 -194.5t-273 -70zM1172 203
q75 0 123.5 40.5t71.5 114.5t23 172v21q0 96 -23.5 169.5t-72 115t-124.5 41.5t-124 -41.5t-71 -115t-23 -169.5v-21q0 -99 23 -172.5t71.5 -114t125.5 -40.5z" />
    <glyph glyph-name="uni044F" unicode="&#x44f;" horiz-adv-x="1313" 
d="M85 0v175l115 18l138 242q-92 45 -140.5 119.5t-48.5 168.5q0 105 57 186.5t161 127t245 45.5h632v-176l-155 -30v-671l155 -30v-175h-572v175l126 30v174h-158l-195 -379h-360zM607 576h191v283h-186q-82 0 -127 -44t-45 -100t43.5 -97.5t123.5 -41.5z" />
    <glyph glyph-name="uni0450" unicode="&#x450;" horiz-adv-x="1078" 
d="M581 -21q-155 0 -271 68.5t-179.5 188.5t-63.5 274v40q0 161 60 285.5t169.5 196t258.5 70.5q147 0 247 -58t152 -167t52 -264v-159h-636l-2 -6q6 -71 35.5 -126.5t83.5 -87t131 -31.5q80 0 149.5 20.5t135.5 60.5l79 -180q-67 -54 -168.5 -89.5t-232.5 -35.5zM372 647
h361v26q0 66 -17.5 113.5t-56 73.5t-99.5 26q-58 0 -98 -30.5t-62.5 -83.5t-30.5 -120zM724 1287h-8h-226l-276 267l2 6h309z" />
    <glyph glyph-name="uni0451" unicode="&#x451;" horiz-adv-x="1078" 
d="M581 -21q-155 0 -271 68.5t-179.5 188.5t-63.5 274v40q0 161 60 285.5t169.5 196t258.5 70.5q147 0 247 -58t152 -167t52 -264v-159h-636l-2 -6q6 -71 35.5 -126.5t83.5 -87t131 -31.5q80 0 149.5 20.5t135.5 60.5l79 -180q-67 -54 -168.5 -89.5t-232.5 -35.5zM372 647
h361v26q0 66 -17.5 113.5t-56 73.5t-99.5 26q-58 0 -98 -30.5t-62.5 -83.5t-30.5 -120zM634 1311v249h281v-249h-281zM183 1311v249h281v-249h-281z" />
    <glyph glyph-name="uni0452" unicode="&#x452;" horiz-adv-x="1303" 
d="M742 -437q-32 0 -64.5 4t-70.5 13l14 221q20 -6 47 -9.5t45 -3.5q63 0 95.5 44.5t32.5 127.5v684q0 126 -44.5 178.5t-132.5 52.5q-59 0 -105.5 -24.5t-76.5 -70.5v-575l125 -30v-175h-557v175l140 30v961h-205v139h205v69l-155 30v156h447v-255h195v-139h-195v-221
q51 74 126 115.5t169 41.5q164 0 260 -112.5t96 -347.5v-682q0 -190 -102.5 -293.5t-288.5 -103.5z" />
    <glyph glyph-name="uni0453" unicode="&#x453;" horiz-adv-x="1088" 
d="M60 0v175l155 30v671l-155 30v176h948v-381h-183l-12 155h-306v-651l155 -30v-175h-602zM370 1287l199 273h309l2 -6l-276 -267h-226h-8z" />
    <glyph glyph-name="uni0454" unicode="&#x454;" horiz-adv-x="1107" 
d="M586 -21q-161 0 -274 70t-171.5 193t-58.5 283v30q0 160 60.5 283t176 193.5t281.5 70.5q131 0 235 -39t173 -110l4 -289h-237l-48 169q-22 19 -54.5 31.5t-79.5 12.5q-69 0 -115 -32.5t-69.5 -90t-27.5 -132.5l2 -5h291v-175h-289l-2 -5q5 -71 27.5 -124t65.5 -81.5
t110 -28.5q52 0 90.5 21t60 58t21.5 88h264l3 -6q3 -109 -55 -196t-158 -138t-226 -51z" />
    <glyph glyph-name="uni0455" unicode="&#x455;" horiz-adv-x="1034" 
d="M527 -21q-121 0 -225.5 23t-200.5 66l-3 306h203l39 -156q34 -17 74.5 -27t92.5 -10q98 0 138 32t40 80q0 45 -42.5 79.5t-169.5 60.5q-192 40 -283 124t-91 215q0 90 45.5 164t139 119t239.5 45q122 0 223.5 -23.5t170.5 -61.5l3 -296h-202l-31 142q-27 20 -63.5 30
t-82.5 10q-77 0 -118 -31t-41 -80q0 -28 14.5 -52t57.5 -45t125 -40q201 -46 293 -122.5t92 -214.5q0 -151 -109.5 -244t-327.5 -93z" />
    <glyph glyph-name="uni0456" unicode="&#x456;" horiz-adv-x="660" 
d="M54 0v175l141 30v671l-156 30v176h448v-877l140 -30v-175h-573zM185 1311v249h302v-249h-302z" />
    <glyph glyph-name="uni0457" unicode="&#x457;" horiz-adv-x="661" 
d="M54 0v175l141 30v671l-156 30v176h448v-877l140 -30v-175h-573zM421 1311v249h281v-249h-281zM-30 1311v249h281v-249h-281z" />
    <glyph glyph-name="uni0458" unicode="&#x458;" horiz-adv-x="599" 
d="M105 -437q-41 0 -74.5 4t-69.5 13l15 221q22 -6 46.5 -9.5t51.5 -3.5q57 0 89 45t32 127v916l-156 30v176h447v-1122q0 -191 -100.5 -294t-280.5 -103zM181 1311v249h302v-249h-302z" />
    <glyph glyph-name="uni0459" unicode="&#x459;" horiz-adv-x="1802" 
d="M65 0l-4 227h31q60 0 99.5 42.5t59 129.5t19.5 222v255l-155 30v176h972h155v-176l-155 -30v-156h203q218 0 343 -98.5t125 -260.5q0 -164 -125 -262.5t-343 -98.5h-651v175l155 30v651h-232v-235q0 -316 -106 -468.5t-345 -152.5h-46zM1087 222h203q90 0 133.5 39
t43.5 101q0 61 -43.5 97t-133.5 36h-203v-273z" />
    <glyph glyph-name="uni045A" unicode="&#x45a;" horiz-adv-x="1899" 
d="M85 0v175l156 30v671l-156 30v176h573v-176l-126 -30v-211h356v211l-125 30v176h125h292h156v-176l-156 -30v-157h204q219 0 343.5 -98t124.5 -260q0 -164 -125 -262.5t-343 -98.5h-621v175l125 30v236h-356v-236l126 -30v-175h-573zM1180 222h204q90 0 133.5 39
t43.5 101q0 61 -43 97t-134 36h-204v-273z" />
    <glyph glyph-name="uni045B" unicode="&#x45b;" horiz-adv-x="1302" 
d="M47 0v175l141 30v1149l-156 30v176h447v-616q51 75 126.5 116.5t171.5 41.5q163 0 258.5 -108.5t95.5 -335.5v-453l140 -30v-175h-558v175l126 30v455q0 117 -44 166t-129 49q-59 0 -107.5 -24.5t-79.5 -71.5v-574l126 -30v-175h-558zM32 1133v155h659v-155h-659z" />
    <glyph glyph-name="uni045C" unicode="&#x45c;" horiz-adv-x="1330" 
d="M91 0v175l156 30v671l-156 30v176h580v-176l-133 -30v-206h100l162 240q61 94 127 141.5t160 47.5q56 0 97 -14t80 -38l-49 -202q-28 7 -38.5 9.5t-25.5 2.5q-34 0 -66 -23t-56 -58l-140 -204l251 -373l147 -24v-175h-401l-236 405h-112v-200l133 -30v-175h-580z
M491 1287l199 273h309l2 -6l-276 -267h-226h-8z" />
    <glyph glyph-name="uni045D" unicode="&#x45d;" horiz-adv-x="1417" 
d="M85 0v175l156 30v671l-156 30v176h448h140v-176l-140 -30v-451l6 -1l352 658h292h155v-176l-155 -30v-671l155 -30v-175h-587v175l140 30v453l-6 1l-352 -659h-448zM889 1287h-8h-226l-276 267l2 6h309z" />
    <glyph glyph-name="uni045E" unicode="&#x45e;" horiz-adv-x="1285" 
d="M363 -437q-38 0 -80.5 6.5t-80.5 17.5l33 214q19 -4 42 -6t40 -2q63 0 109 33t67 95l24 67l-362 899l-133 19v176h574v-176l-132 -20l170 -477l21 -59h6l201 538l-129 18v176h535v-176l-122 -17l-413 -1050q-30 -75 -76.5 -137.5t-118 -100.5t-175.5 -38zM647 1263
q-161 0 -256 81.5t-91 209.5l2 6h198q0 -58 35.5 -96t111.5 -38q75 0 110 37t35 97h200l2 -6q2 -128 -92 -209.5t-255 -81.5z" />
    <glyph glyph-name="uni045F" unicode="&#x45f;" horiz-adv-x="1417" 
d="M567 -358v358h-481v175l155 30v671l-155 30v176h447h125v-176l-125 -30v-652h358v652l-126 30v176h574v-176l-156 -30v-671l156 -30v-175h-481v-358h-291z" />
    <glyph glyph-name="uni0460" unicode="&#x460;" horiz-adv-x="1884" 
d="M613 -21q-146 0 -255.5 55t-170.5 160t-61 255v1007h293v-1007q0 -124 51.5 -185t142.5 -61q96 0 149.5 60.5t53.5 185.5v1007h294v-1007q0 -124 53.5 -185t146.5 -61q94 0 146 60.5t52 185.5v1007h292v-1007q0 -151 -61.5 -256t-171.5 -159.5t-257 -54.5
q-111 0 -200.5 40t-146.5 118q-59 -78 -149.5 -118t-200.5 -40z" />
    <glyph glyph-name="uni0461" unicode="&#x461;" horiz-adv-x="1710" 
d="M567 -21q-199 0 -319.5 118t-120.5 338v647h292v-647q0 -118 37.5 -175t112.5 -57q81 0 124.5 57t43.5 175v647h293v-647q0 -119 39.5 -175.5t117.5 -56.5t115.5 57t37.5 175v647h292v-647q0 -220 -121.5 -338t-321.5 -118q-99 0 -177 34.5t-131 105.5
q-55 -71 -135 -105.5t-179 -34.5z" />
    <glyph glyph-name="uni0462" unicode="&#x462;" horiz-adv-x="1360" 
d="M67 0v175l156 30v1045l-156 30v176h604v-176l-156 -30v-333h250q169 0 291.5 -56t189 -157.5t66.5 -239.5q0 -139 -67 -243.5t-189.5 -162.5t-290.5 -58h-698zM515 224h250q123 0 189.5 68.5t66.5 173.5q0 100 -65.5 163t-190.5 63h-250v-468zM67 1011v155h659v-155h-659
z" />
    <glyph glyph-name="uni0463" unicode="&#x463;" horiz-adv-x="1243" 
d="M89 0v175l155 30v855h-156v181h156v114l-155 30v176h448v-320h255v-181h-255v-274h203q146 0 250.5 -49t161 -137t56.5 -205q0 -176 -125.5 -285.5t-342.5 -109.5h-651zM537 223h203q89 0 133 47.5t44 122.5q0 72 -44 120.5t-133 48.5h-203v-339z" />
    <glyph glyph-name="uni0464" unicode="&#x464;" horiz-adv-x="1912" 
d="M1311 -20q-185 0 -331 84.5t-234 234t-101 345.5v3.5v3.5h-142v-446l156 -30v-175h-603v175l156 30v1045l-156 30v176h156h291h156v-176l-156 -30v-412h145q17 190 105 334t232 225t326 81q169 0 305 -61.5t225 -162.5v-288h-217l-30 194q-43 43 -108.5 68t-154.5 25
q-114 0 -197 -51t-131.5 -143t-57.5 -215l3 -6h490v-187h-493l-2 -5q5 -132 52 -231.5t131 -155t200 -55.5q86 0 157.5 25.5t110.5 67.5l30 194h217v-288q-87 -102 -224 -162.5t-306 -60.5z" />
    <glyph glyph-name="uni0465" unicode="&#x465;" horiz-adv-x="1644" 
d="M1158 -21q-149 0 -256.5 59.5t-169 166t-75.5 247.5h-143v-247l140 -30v-175h-573v175l141 30v671l-156 30v176h156h292v-450h144q14 140 77.5 245.5t174 165t262.5 59.5q131 0 235 -39t173 -110l4 -289h-237l-48 169q-21 19 -54 31.5t-79 12.5q-68 0 -113 -30.5
t-69 -84.5t-29 -125l2 -5h247v-180h-248l-2 -5q5 -110 53.5 -177t150.5 -67q52 0 91 21t60 58t21 88h264l3 -6q3 -109 -54.5 -196t-158 -138t-226.5 -51z" />
    <glyph glyph-name="uni0466" unicode="&#x466;" horiz-adv-x="1493" 
d="M52 0v175l112 15l447 1266h300l444 -1266l112 -15v-175h-506v175l91 17l-86 263h-88v-455h-244v455h-82l-86 -263l92 -17v-175h-506zM619 656h280l-126 383l-11 32h-6l-11 -33z" />
    <glyph glyph-name="uni0467" unicode="&#x467;" horiz-adv-x="1250" 
d="M54 0v175l84 14l338 893h300l337 -893l84 -14v-175h-310l-109 318h-62v-318h-190v318h-54l-107 -318h-311zM530 490h189l-64 187l-27 114h-6l-28 -114z" />
    <glyph glyph-name="uni0468" unicode="&#x468;" horiz-adv-x="2098" 
d="M21 0v175l156 30v1045l-156 30v176h156h291h156v-176l-156 -30v-593h479l283 799h300l444 -1266l111 -15v-175h-506v175l91 17l-86 263h-86v-455h-245v455h-83l-85 -263l92 -17v-175h-507v175l112 15l93 264h-407v-249l156 -30v-175h-603zM1237 656h280l-124 377l-13 38
h-6l-13 -43z" />
    <glyph glyph-name="uni0469" unicode="&#x469;" horiz-adv-x="1880" 
d="M46 0v175l141 30v671l-156 30v176h156h292v-592h385l224 592h300l337 -893l84 -14v-175h-310l-109 318h-59v-318h-189v318h-58l-107 -318h-311v175l84 14l49 130h-320v-114l140 -30v-175h-573zM1142 490h189l-64 187l-27 114h-6l-28 -114z" />
    <glyph glyph-name="uni046A" unicode="&#x46a;" horiz-adv-x="1931" 
d="M58 0v175l141 30v139q0 238 129 346.5t381 114.5h9.5h9.5l-261 452l-174 23v176h1403v-176l-175 -23l-260 -453h10h13q231 -12 351.5 -121t120.5 -339v-139l141 -30v-175h-558v175l126 30v139q0 132 -57.5 182.5t-186.5 50.5h-79l-16 -8v-364l126 -30v-175h-543v175
l126 30v362l-17 10h-84q-129 0 -186.5 -50.5t-57.5 -182.5v-139l126 -30v-175h-558zM990 844h6l16 33l184 351h-403l182 -353z" />
    <glyph glyph-name="uni046B" unicode="&#x46b;" horiz-adv-x="1661" 
d="M71 0v175l129 31v9q0 175 91.5 271.5t261.5 121.5q11 1 18.5 2t13.5 2l-159 271l-177 23v176h1186v-176l-176 -23l-160 -273q5 0 14 -1t22 -4q159 -27 247 -123t88 -254v-23l129 -30v-175h-415v179q0 121 -43 168.5t-132 47.5h-24l-3 -14v-176l123 -30v-175h-537v175
l123 30v180l-2 10h-29q-90 0 -132.5 -47.5t-42.5 -168.5v-179h-414zM839 633h6l124 261h-253z" />
    <glyph glyph-name="uni046C" unicode="&#x46c;" horiz-adv-x="2550" 
d="M40 0v175l156 30v1045l-156 30v176h603v-176l-156 -30v-444h1002v-228h-1002v-373l156 -30v-175h-603zM681 0v175l141 30v139q0 238 129 346.5t381 114.5h10h9l-261 452l-173 23v176h1403v-176l-175 -23l-261 -453h10h14q230 -12 350.5 -121t120.5 -339v-139l141 -30
v-175h-558v175l126 30v139q0 132 -57.5 182.5t-185.5 50.5h-79l-17 -8v-364l126 -30v-175h-543v175l126 30v362l-17 10h-84q-129 0 -186 -50.5t-57 -182.5v-139l126 -30v-175h-559zM1613 844h7l16 33l183 351h-403l182 -353z" />
    <glyph glyph-name="uni046D" unicode="&#x46d;" horiz-adv-x="2271" 
d="M38 -1v175l141 31v670l-156 31v175h448v-470h853v-208h-853v-198l140 -31v-175h-573zM673 0v175l128 31v9q0 175 91.5 271.5t261.5 121.5q11 1 19 2t13 2l-159 271l-177 23v176h1186v-176l-176 -23l-160 -273q5 0 14 -1t23 -4q158 -27 246 -123t88 -254v-23l129 -30v-175
h-415v179q0 121 -42.5 168.5t-131.5 47.5h-25l-3 -14v-176l123 -30v-175h-536v175l123 30v180l-2 10h-29q-91 0 -133 -47.5t-42 -168.5v-179h-414zM1440 633h7l123 261h-253z" />
    <glyph glyph-name="uni046E" unicode="&#x46e;" horiz-adv-x="1130" 
d="M448 -448q-106 24 -179 74.5t-110.5 123t-38.5 161.5q0 151 94 225.5t263 74.5h63q106 0 168 55t62 149q0 102 -70 156.5t-205 54.5h-135v233h143q113 0 167 52t54 140q0 82 -53.5 136t-167.5 54q-62 0 -118 -15t-95 -41l-24 -161h-214v262q76 86 193 133t272 47
q152 0 264.5 -45t174 -132t61.5 -214q0 -118 -60 -201.5t-170 -128.5q141 -45 208 -129.5t67 -210.5q0 -133 -63 -228.5t-176.5 -146.5t-266.5 -51h-56q-59 0 -86.5 -28t-27.5 -71q0 -39 19 -68t52 -50.5t73 -38.5zM163 1819l253 -247h215l255 244v26h-225l-137 -145
l-133 145h-228v-23z" />
    <glyph glyph-name="uni046F" unicode="&#x46f;" horiz-adv-x="1000" 
d="M363 -434q-87 28 -154 79.5t-105 121.5t-39 153q0 131 86.5 197.5t240.5 66.5h56q102 0 160.5 34.5t58.5 96.5q0 63 -59.5 96t-173.5 33h-106v177h113q92 0 136.5 36.5t44.5 95.5q0 58 -46.5 92.5t-136.5 35.5q-55 0 -96 -12t-70 -32l-25 -147h-206v248q70 76 172 112
t240 36q139 0 242 -34.5t160 -102t57 -166.5q0 -84 -47 -146.5t-133 -99.5q109 -33 167.5 -94t58.5 -152q0 -97 -57.5 -167t-162 -107.5t-245.5 -37.5h-49q-67 0 -97.5 -25.5t-30.5 -73.5q0 -38 17 -67t46.5 -50.5t64.5 -39.5zM353 1291l-253 246v23h228l134 -144l137 144
h224v-26l-254 -243h-216z" />
    <glyph glyph-name="uni0470" unicode="&#x470;" horiz-adv-x="1733" 
d="M581 0v175l155 30v177q-167 15 -288 89.5t-187 203t-66 304.5v271l-140 30v176h431v-477q0 -105 29 -181t83.5 -121t131.5 -57l6 2v628l-140 30v176h572v-176l-140 -30v-629l6 -1q77 10 129.5 54t79 121t26.5 184v477h433v-176l-141 -30v-271q0 -173 -65 -300.5
t-184.5 -203t-283.5 -92.5v-178l155 -30v-175h-602z" />
    <glyph glyph-name="uni0471" unicode="&#x471;" horiz-adv-x="1661" 
d="M727 -478v468q-253 34 -391 182t-138 418v196q0 44 -17.5 62.5t-55.5 18.5q-15 0 -32.5 -3.5t-33.5 -8.5l-30 199q38 20 99.5 34t122.5 14q115 0 177 -58t62 -176v-281q0 -157 61.5 -244.5t169.5 -111.5l6 2v849h292v-856l6 -2q95 16 155 66t89 127t29 175
q-2 117 -30.5 238t-77.5 252h271q39 -66 67.5 -142.5t45 -163.5t16.5 -184q0 -162 -60 -291.5t-186 -212t-325 -102.5v-464h-292z" />
    <glyph glyph-name="uni0472" unicode="&#x472;" horiz-adv-x="1400" 
d="M730 -21q-196 0 -344.5 95.5t-231 262.5t-82.5 380v22q0 212 82.5 379t230 263t344.5 96t346.5 -96t233 -263t83.5 -379v-22q0 -213 -83.5 -380t-232 -262.5t-346.5 -95.5zM730 206q112 0 190 53.5t122 150t51 225.5l-2 5h-717l-2 -5q7 -129 49.5 -225.5t120 -150
t188.5 -53.5zM374 820h717l2 5q-8 127 -52 222.5t-122.5 148.5t-189.5 53t-188 -53t-119.5 -148t-49.5 -223z" />
    <glyph glyph-name="uni0473" unicode="&#x473;" horiz-adv-x="1191" 
d="M590 -21q-160 0 -275 70t-176 194t-61 287v21q0 161 61 285.5t175.5 195t273.5 70.5q160 0 274.5 -70.5t175.5 -194.5t61 -286v-21q0 -162 -61 -286.5t-175 -194.5t-273 -70zM590 203q64 0 108.5 29.5t69 84t30.5 127.5l-2 5h-415l-2 -5q6 -73 30.5 -127.5t69.5 -84
t111 -29.5zM381 629h416l2 5q-6 72 -31 127t-70 85.5t-110 30.5t-110 -30.5t-69.5 -85.5t-29.5 -127z" />
    <glyph glyph-name="uni0474" unicode="&#x474;" horiz-adv-x="1410" 
d="M588 0l-424 1263l-125 17v176h525v-176l-100 -19l252 -866l18 -81h6l17 78l211 743q53 172 135.5 257.5t228.5 82.5l40 -1l-2 -236h-28q-31 0 -53 -12t-37.5 -39t-28.5 -69l-336 -1118h-299z" />
    <glyph glyph-name="uni0475" unicode="&#x475;" horiz-adv-x="1188" 
d="M456 0l-287 890l-122 16v176h522v-176l-110 -21l115 -482l17 -88h6l16 88l92 374q48 162 131.5 243.5t208.5 81.5q29 0 55 -4t53 -15l-24 -222q-11 2 -24 3.5t-23 1.5q-41 0 -70.5 -25t-44.5 -77l-232 -764h-279z" />
    <glyph glyph-name="uni0476" unicode="&#x476;" horiz-adv-x="1410" 
d="M588 0l-424 1263l-125 17v176h525v-176l-100 -19l252 -866l18 -81h6l17 78l211 743q53 172 135.5 257.5t228.5 82.5l40 -1l-2 -236h-28q-31 0 -53 -12t-37.5 -39t-28.5 -69l-336 -1118h-299zM759 1569h-223l-293 267l2 6h276l240 -268zM1099 1569h-215l-240 268l2 5h260
l200 -273h-7z" />
    <glyph glyph-name="uni0477" unicode="&#x477;" horiz-adv-x="1188" 
d="M456 0l-287 890l-122 16v176h522v-176l-110 -21l115 -482l17 -88h6l16 88l92 374q48 162 131.5 243.5t208.5 81.5q29 0 55 -4t53 -15l-24 -222q-11 2 -24 3.5t-23 1.5q-41 0 -70.5 -25t-44.5 -77l-232 -764h-279zM609 1287h-223l-293 267l2 6h276l240 -268zM949 1287
h-215l-240 268l2 5h260l200 -273h-7z" />
    <glyph glyph-name="uni0478" unicode="&#x478;" horiz-adv-x="2731" 
d="M723 -21q-147 0 -268 55t-208.5 154.5t-134.5 234t-47 294.5v22q0 159 47 293.5t134 234.5t208 155t268 55q148 0 270 -55t210 -155t135.5 -234.5t47.5 -293.5v-22q0 -160 -47.5 -294.5t-135.5 -234t-209.5 -154.5t-269.5 -55zM723 206q124 0 206 64t123.5 179t41.5 268
v24q0 151 -42 265.5t-124.5 178.5t-205.5 64q-122 0 -203 -63.5t-121.5 -177.5t-40.5 -267v-24q0 -153 40.5 -268t122 -179t203.5 -64zM1809 -437q-38 0 -80.5 6.5t-80.5 17.5l33 214q19 -4 42 -6t40 -2q63 0 109 33t67 95l24 67l-362 899l-133 19v176h574v-176l-132 -20
l170 -477l21 -59h6l201 538l-129 18v176h535v-176l-122 -17l-413 -1050q-30 -75 -76.5 -137.5t-118 -100.5t-175.5 -38z" />
    <glyph glyph-name="uni0479" unicode="&#x479;" horiz-adv-x="2401" 
d="M579 -21q-160 0 -275 70t-176 194.5t-61 286.5v21q0 161 61 285.5t175.5 195t273.5 70.5q161 0 275 -70.5t175 -194.5t61 -286v-21q0 -162 -61 -286.5t-175 -194.5t-273 -70zM579 203q76 0 124 41t71 114.5t23 171.5v21q0 96 -23 169.5t-71.5 115t-125.5 41.5
q-75 0 -124 -41.5t-71.5 -115t-22.5 -169.5v-21q0 -98 22.5 -172t71.5 -114.5t126 -40.5zM1479 -437q-38 0 -80.5 6.5t-80.5 17.5l33 214q19 -4 42 -6t40 -2q63 0 109 33t67 95l24 67l-362 899l-133 19v176h574v-176l-132 -20l170 -477l21 -59h6l201 538l-129 18v176h535
v-176l-122 -17l-413 -1050q-30 -75 -76.5 -137.5t-118 -100.5t-175.5 -38z" />
    <glyph glyph-name="uni047A" unicode="&#x47a;" horiz-adv-x="1449" 
d="M725 -21q-197 0 -345 95.5t-230.5 262.5t-82.5 380v22q0 212 82.5 379t230 263t344.5 96t346.5 -96t233 -263t83.5 -379v-22q0 -213 -83 -380t-232.5 -262.5t-346.5 -95.5zM725 206q123 0 205.5 64t124 179t41.5 268v24q0 151 -42 265.5t-124.5 178.5t-205.5 64
q-122 0 -203.5 -63.5t-121.5 -177.5t-40 -267v-24q0 -153 40.5 -268.5t122 -179t203.5 -63.5zM632 -136v464h195v-464h-195zM629 1123v454h196v-454h-196z" />
    <glyph glyph-name="uni047B" unicode="&#x47b;" horiz-adv-x="1153" 
d="M579 -21q-160 0 -275 70t-176 194t-61 287v21q0 161 61 285.5t175.5 195t273.5 70.5q160 0 274.5 -70.5t175.5 -194.5t61 -286v-21q0 -162 -61 -286.5t-175 -194.5t-273 -70zM579 203q75 0 123.5 40.5t71.5 114.5t23 172v21q0 96 -23 169.5t-71.5 115t-125.5 41.5
q-76 0 -124.5 -41.5t-71 -115t-22.5 -169.5v-21q0 -99 23 -172.5t71 -114t126 -40.5zM499 -123v454h150v-454h-150zM504 763v441h151v-441h-151z" />
    <glyph glyph-name="uni047C" unicode="&#x47c;" horiz-adv-x="1838" 
d="M600 -21q-146 0 -255.5 56.5t-170.5 164.5t-61 263v508q0 154 61 262t169.5 164t250.5 53l6 -2v-217q-91 0 -143 -64.5t-52 -195.5v-508q0 -131 52 -195.5t143 -64.5q96 0 149.5 60.5t53.5 185.5v367h278v-367q0 -125 53 -185.5t150 -60.5q90 0 142 64.5t52 195.5v508
q0 131 -52 195.5t-142 64.5v217l6 2q142 3 250 -53t169.5 -164t61.5 -262v-508q0 -155 -61.5 -263t-171 -164.5t-254.5 -56.5q-108 0 -196.5 37.5t-146.5 111.5q-59 -74 -147 -111.5t-194 -37.5zM895 1292l-81 55l58 108l-1 147h182v-129zM650 1587v37q0 109 60.5 163
t172.5 54q35 0 94.5 -18t129.5 -42t139.5 -42t125.5 -18h22v-134h-23q-65 0 -140.5 18t-146.5 41.5t-124 42t-74 18.5q-49 0 -76 -25.5t-27 -76.5v-18h-133z" />
    <glyph glyph-name="uni047D" unicode="&#x47d;" horiz-adv-x="1576" 
d="M511 -21q-126 0 -222 53.5t-150 156t-54 247.5v205q0 146 58 247.5t160.5 154t237.5 50.5l6 -3v-217q-80 0 -125 -58t-45 -174v-205q0 -117 36.5 -175t100.5 -58q71 0 111 57.5t40 174.5v169h277v-169q0 -117 39.5 -174.5t111.5 -57.5q63 0 100 58t37 175v205
q0 116 -45.5 174t-124.5 58v217l6 3q134 2 236.5 -50.5t161 -154t58.5 -247.5v-205q0 -145 -54 -247.5t-150 -156t-222 -53.5q-100 0 -171.5 35t-121.5 109q-52 -74 -122.5 -109t-169.5 -35zM767 958l-82 55l59 109l-1 133h182v-115zM521 1240v37q0 109 60.5 163t172.5 54
q35 0 94.5 -18t130 -42t140 -42t125.5 -18h21v-134h-23q-64 0 -139.5 18.5t-147 42t-125 41.5t-73.5 18q-48 0 -75.5 -25.5t-27.5 -76.5v-18h-133z" />
    <glyph glyph-name="uni047E" unicode="&#x47e;" horiz-adv-x="1884" 
d="M613 -21q-146 0 -255.5 55t-170.5 160t-61 255v1007h293v-1007q0 -124 51.5 -185t142.5 -61q96 0 149.5 60.5t53.5 185.5v1007h294v-1007q0 -124 53.5 -185t146.5 -61q94 0 146 60.5t52 185.5v1007h292v-1007q0 -151 -61.5 -256t-171.5 -159.5t-257 -54.5
q-111 0 -200.5 40t-146.5 118q-59 -78 -149.5 -118t-200.5 -40zM862 1560v127h-344v112h886l1 -112h-362v-127h-181z" />
    <glyph glyph-name="uni047F" unicode="&#x47f;" horiz-adv-x="1700" 
d="M567 -21q-199 0 -319.5 118t-120.5 338v647h292v-647q0 -118 38.5 -175t113.5 -57q79 0 122.5 57t43.5 175v647h293v-647q0 -119 39.5 -175.5t118.5 -56.5q75 0 113.5 57t38.5 175v647h292v-647q0 -220 -121.5 -338t-321.5 -118q-99 0 -177.5 35t-130.5 105
q-54 -70 -134.5 -105t-179.5 -35zM800 1218v127h-313v112h824l6 -112h-337v-127h-180z" />
    <glyph glyph-name="uni0480" unicode="&#x480;" horiz-adv-x="1247" 
d="M561 -366v354q-141 22 -244 103t-159 207.5t-56 284.5v289q0 178 70 314.5t197 213.5t297 77q161 0 283 -58t189 -168.5t64 -269.5l-2 -6h-284q0 141 -70 209t-182 68q-87 0 -147 -48t-91.5 -133t-31.5 -197v-291q0 -112 31.5 -198t91.5 -134t147 -48h188v-569h-291z" />
    <glyph glyph-name="uni0481" unicode="&#x481;" horiz-adv-x="1065" 
d="M486 -367v355q-128 22 -217 95.5t-135.5 187t-46.5 254.5v30q0 158 58.5 281.5t169.5 194.5t267 71q134 0 234 -52t155.5 -145t52.5 -217l-2 -6h-266q0 55 -20.5 99t-59.5 70t-94 26q-72 0 -117 -41.5t-65.5 -114.5t-20.5 -166v-30q0 -95 21 -168t67 -113.5t121 -40.5
h189v-570h-291z" />
    <glyph glyph-name="uni0482" unicode="&#x482;" horiz-adv-x="1100" 
d="M82 0l225 398l-289 171l71 128l293 -171l202 360l-290 171l73 130l291 -171l185 326h172l-228 -405l293 -171l-76 -127l-288 170l-204 -360l289 -172l-72 -128l-291 170l-181 -319h-175z" />
    <glyph glyph-name="uni0483" unicode="&#x483;" 
d="M217 1186l-177 1l1 238h546l-1 108l177 -1v-220h-546v-126z" />
    <glyph glyph-name="uni0484" unicode="&#x484;" 
d="M40 1303v134h22q57 0 128 18t143 42t133.5 42t97.5 18q113 0 175.5 -54t62.5 -163v-37h-136v18q0 51 -29 76.5t-77 25.5q-21 0 -76.5 -18t-128.5 -42t-149.5 -42t-141.5 -18h-24z" />
    <glyph glyph-name="uni0485" unicode="&#x485;" 
d="M206 1305l-166 195v141h190l-1 -159l58 -109z" />
    <glyph glyph-name="uni0486" unicode="&#x486;" 
d="M122 1305l-82 68l59 109l-1 159h189v-141z" />
    <glyph glyph-name="uni0488" unicode="&#x488;" horiz-adv-x="2016" 
d="M218 990l-2 6q-5 79 51.5 130.5t153.5 51.5q96 0 152.5 -51.5t52.5 -130.5l-2 -6h-104q0 43 -24.5 72t-74.5 29t-73.5 -29t-23.5 -72h-106zM208 -32l-2 6q-5 78 51.5 130t152.5 52t153 -51.5t53 -130.5l-2 -6h-105q0 44 -24 72.5t-75 28.5q-50 0 -73 -29t-23 -72h-106z
M796 -316l-2 6q-5 80 51 131t153 51q96 0 152.5 -51t52.5 -131l-2 -6h-104q0 44 -24.5 72.5t-74.5 28.5t-73.5 -28.5t-23.5 -72.5h-105zM42 487l-2 6q-5 78 51.5 130t152.5 52t152.5 -51.5t52.5 -130.5l-2 -6h-104q0 44 -24 72.5t-75 28.5q-50 0 -73.5 -29t-23.5 -72h-105z
M1372 -32l-2 6q-5 78 51.5 130t152.5 52t152.5 -51.5t52.5 -130.5l-2 -6h-104q0 44 -24 72.5t-75 28.5q-50 0 -73.5 -29t-23.5 -72h-105zM1569 487l-2 6q-5 78 51.5 130t152.5 52t152.5 -51.5t52.5 -130.5l-2 -6h-104q0 44 -24 72.5t-75 28.5q-50 0 -73.5 -29t-23.5 -72
h-105zM791 1267l-2 6q-5 79 51 130.5t153 51.5q96 0 152.5 -51.5t52.5 -130.5l-2 -6h-104q0 43 -24.5 72t-74.5 29t-73.5 -29t-23.5 -72h-105zM1382 990l-2 6q-5 78 51.5 130t152.5 52t153 -51.5t53 -130.5l-2 -6h-105q0 44 -24 72.5t-75 28.5q-50 0 -73 -29t-23 -72h-106z
" />
    </font>
</defs>
</svg>
